<?xml version="1.0" standalone="no"?>
<!DOCTYPE svg PUBLIC "-//W3C//DTD SVG 1.1//EN" "http://www.w3.org/Graphics/SVG/1.1/DTD/svg11.dtd" >
<svg>
<metadata>
Created by FontForge 20120731 at Thu Feb 27 05:35:50 2014
 By World Wide Web Server
Copyright (c) 2006 by Department of Intellectual Property (DIP), Ministry of Commerce and Software Industry Promotion Agency (Public Organization) (SIPA). All rights reserved.
Created by : Suppakit CHALERMLARP.
</metadata>
<defs>
<font id="THSarabunPSK-Italic" horiz-adv-x="0" >
  <font-face 
    font-family="TH SarabunPSK"
    font-weight="400"
    font-style="italic"
    font-stretch="normal"
    units-per-em="1000"
    panose-1="2 11 5 0 4 2 0 2 0 3"
    ascent="800"
    descent="-200"
    x-height="340"
    cap-height="476"
    bbox="-374.429 -435 947 836"
    underline-thickness="30"
    underline-position="-20"
    unicode-range="U+0020-FB02"
  />
<missing-glyph horiz-adv-x="692" 
d="M642 0h-592v809h592v-809zM612 28v753h-532v-753h532z" />
    <glyph glyph-name="Agrave" unicode="A&#x300;" horiz-adv-x="400" 
d="M357 0h-43l-23 153h-205l-86 -153h-43l282 483h40zM286 186l-36 254l-145 -254h181zM312 526h-31l-40 81l41 10z" />
    <glyph glyph-name="Aacute" unicode="A&#x301;" horiz-adv-x="400" 
d="M357 0h-43l-23 153h-205l-86 -153h-43l282 483h40zM286 186l-36 254l-145 -254h181zM254 526h-31l70 91l37 -10z" />
    <glyph glyph-name="Atilde" unicode="A&#x303;" horiz-adv-x="400" 
d="M357 0h-43l-23 153h-205l-86 -153h-43l282 483h40zM286 186l-36 254l-145 -254h181zM338 590h28q-15 -62 -61 -62q-13 0 -37.5 14t-33.5 14q-17 0 -26 -32h-26q16 64 58 64q13 0 36 -15t38 -15q17 0 24 32z" />
    <glyph glyph-name="Egrave" unicode="E&#x300;" horiz-adv-x="351" 
d="M270 0h-259l101 476h259l-7 -33h-220l-38 -175h196l-7 -33h-196l-42 -202h220zM288 526h-31l-40 81l41 10z" />
    <glyph glyph-name="Eacute" unicode="E&#x301;" horiz-adv-x="351" 
d="M270 0h-259l101 476h259l-7 -33h-220l-38 -175h196l-7 -33h-196l-42 -202h220zM230 526h-31l70 91l37 -10z" />
    <glyph glyph-name="Igrave" unicode="I&#x300;" horiz-adv-x="147" 
d="M50 0h-39l101 476h39zM186 526h-31l-40 81l41 10z" />
    <glyph glyph-name="Iacute" unicode="I&#x301;" horiz-adv-x="147" 
d="M50 0h-39l101 476h39zM128 526h-31l70 91l37 -10z" />
    <glyph glyph-name="Ograve" unicode="O&#x300;" horiz-adv-x="486" 
d="M471 237q-23 -107 -99.5 -177t-174.5 -70t-144.5 70t-23.5 177t99 177t174 70t145 -70t24 -177zM432 237q19 88 -19 150.5t-118 62.5t-144 -62.5t-83 -150.5t19 -150.5t118 -62.5t144 62.5t83 150.5zM355 526h-31l-40 81l41 10z" />
    <glyph glyph-name="Oacute" unicode="O&#x301;" horiz-adv-x="486" 
d="M471 237q-23 -107 -99.5 -177t-174.5 -70t-144.5 70t-23.5 177t99 177t174 70t145 -70t24 -177zM432 237q19 88 -19 150.5t-118 62.5t-144 -62.5t-83 -150.5t19 -150.5t118 -62.5t144 62.5t83 150.5zM297 526h-31l70 91l37 -10z" />
    <glyph glyph-name="Otilde" unicode="O&#x303;" horiz-adv-x="486" 
d="M471 237q-23 -107 -99.5 -177t-174.5 -70t-144.5 70t-23.5 177t99 177t174 70t145 -70t24 -177zM432 237q19 88 -19 150.5t-118 62.5t-144 -62.5t-83 -150.5t19 -150.5t118 -62.5t144 62.5t83 150.5zM381 590h28q-15 -62 -61 -62q-13 0 -37.5 14t-33.5 14q-17 0 -26 -32
h-26q16 64 58 64q13 0 36 -15t38 -15q17 0 24 32z" />
    <glyph glyph-name="Ugrave" unicode="U&#x300;" horiz-adv-x="466" 
d="M411 201q-44 -210 -223 -210t-135 210l59 275h39l-59 -274q-20 -94 10 -136t93 -42q64 0 111 42t66 136l59 274h39zM328 526h-31l-40 81l41 10z" />
    <glyph glyph-name="Uacute" unicode="U&#x301;" horiz-adv-x="466" 
d="M411 201q-44 -210 -223 -210t-135 210l59 275h39l-59 -274q-20 -94 10 -136t93 -42q64 0 111 42t66 136l59 274h39zM297 526h-31l70 91l37 -10z" />
    <glyph glyph-name="Yacute" unicode="Y&#x301;" horiz-adv-x="366" 
d="M424 476l-221 -266l-44 -210h-38l44 209l-107 267h45l88 -233l188 233h45zM252 526h-31l70 91l37 -10z" />
    <glyph glyph-name="agrave" unicode="a&#x300;" horiz-adv-x="398" 
d="M320 69q-9 -40 3 -68l-39 -8q-11 36 -5 69q-55 -72 -141 -72q-58 0 -90 33.5t-32 89.5q0 88 57 158q60 75 146 75q89 1 151 -50zM296 143l31 136q-51 35 -103 35q-73 -1 -124 -65q-46 -60 -46 -131q0 -44 25.5 -70.5t71.5 -26.5q51 0 92.5 36.5t52.5 85.5zM281 390h-31
l-40 81l41 10z" />
    <glyph glyph-name="aacute" unicode="a&#x301;" horiz-adv-x="398" 
d="M320 69q-9 -40 3 -68l-39 -8q-11 36 -5 69q-55 -72 -141 -72q-58 0 -90 33.5t-32 89.5q0 88 57 158q60 75 146 75q89 1 151 -50zM296 143l31 136q-51 35 -103 35q-73 -1 -124 -65q-46 -60 -46 -131q0 -44 25.5 -70.5t71.5 -26.5q51 0 92.5 36.5t52.5 85.5zM262 390h-31
l70 91l37 -10z" />
    <glyph glyph-name="atilde" unicode="a&#x303;" horiz-adv-x="398" 
d="M320 69q-9 -40 3 -68l-39 -8q-11 36 -5 69q-55 -72 -141 -72q-58 0 -90 33.5t-32 89.5q0 88 57 158q60 75 146 75q89 1 151 -50zM296 143l31 136q-51 35 -103 35q-73 -1 -124 -65q-46 -60 -46 -131q0 -44 25.5 -70.5t71.5 -26.5q51 0 92.5 36.5t52.5 85.5zM334 454h28
q-15 -62 -61 -62q-13 0 -37.5 14t-33.5 14q-17 0 -26 -32h-26q16 64 58 64q13 0 36 -15t38 -15q17 0 24 32z" />
    <glyph glyph-name="egrave" unicode="e&#x300;" horiz-adv-x="374" 
d="M344 253q0 -119 -203 -119q-37 0 -87 4q-1 -8 -1 -15q0 -98 114 -98q58 0 124 23l-4 -33q-63 -24 -131 -24q-65 0 -104 35t-39 94q0 95 67 163q64 64 147 64q117 0 117 -94zM309 254q0 62 -82 62q-51 0 -101 -41q-53 -44 -70 -105q41 -3 73 -3q180 0 180 87zM270 390h-31
l-40 81l41 10z" />
    <glyph glyph-name="eacute" unicode="e&#x301;" horiz-adv-x="374" 
d="M344 253q0 -119 -203 -119q-37 0 -87 4q-1 -8 -1 -15q0 -98 114 -98q58 0 124 23l-4 -33q-63 -24 -131 -24q-65 0 -104 35t-39 94q0 95 67 163q64 64 147 64q117 0 117 -94zM309 254q0 62 -82 62q-51 0 -101 -41q-53 -44 -70 -105q41 -3 73 -3q180 0 180 87zM212 390h-31
l70 91l37 -10z" />
    <glyph glyph-name="igrave" unicode="i&#x300;" horiz-adv-x="143" 
d="M47 0h-38l72 340h38zM155 390h-31l-40 81l41 10z" />
    <glyph glyph-name="iacute" unicode="i&#x301;" horiz-adv-x="143" 
d="M47 0h-38l72 340h38zM97 390h-31l70 91l37 -10z" />
    <glyph glyph-name="ograve" unicode="o&#x300;" horiz-adv-x="398" 
d="M362 169q-16 -75 -74 -127t-135 -52t-113 52t-20 127t74 126.5t135 51.5t113 -51.5t20 -126.5zM324 169q14 62 -15 103.5t-87 41.5t-104 -41.5t-60 -103.5q-13 -62 15.5 -104t86.5 -42t104.5 42t59.5 104zM283 390h-31l-40 81l41 10z" />
    <glyph glyph-name="oacute" unicode="o&#x301;" horiz-adv-x="398" 
d="M362 169q-16 -75 -74 -127t-135 -52t-113 52t-20 127t74 126.5t135 51.5t113 -51.5t20 -126.5zM324 169q14 62 -15 103.5t-87 41.5t-104 -41.5t-60 -103.5q-13 -62 15.5 -104t86.5 -42t104.5 42t59.5 104zM224 390h-31l70 91l37 -10z" />
    <glyph glyph-name="otilde" unicode="o&#x303;" horiz-adv-x="398" 
d="M362 169q-16 -75 -74 -127t-135 -52t-113 52t-20 127t74 126.5t135 51.5t113 -51.5t20 -126.5zM324 169q14 62 -15 103.5t-87 41.5t-104 -41.5t-60 -103.5q-13 -62 15.5 -104t86.5 -42t104.5 42t59.5 104zM308 454h28q-15 -62 -61 -62q-13 0 -37.5 14t-33.5 14
q-17 0 -26 -32h-26q16 64 58 64q13 0 36 -15t38 -15q17 0 24 32z" />
    <glyph glyph-name="ugrave" unicode="u&#x300;" horiz-adv-x="390" 
d="M312 1l-39 -8q-5 34 -2 66q-58 -68 -142 -68q-122 0 -89 158l26 121q8 42 -3 68l39 8q11 -34 5 -67l-26 -123q-28 -131 64 -131q43 0 84 28q45 32 55 81l44 206h39l-55 -257q-8 -37 0 -82zM261 390h-31l-40 81l41 10z" />
    <glyph glyph-name="uacute" unicode="u&#x301;" horiz-adv-x="390" 
d="M312 1l-39 -8q-5 34 -2 66q-58 -68 -142 -68q-122 0 -89 158l26 121q8 42 -3 68l39 8q11 -34 5 -67l-26 -123q-28 -131 64 -131q43 0 84 28q45 32 55 81l44 206h39l-55 -257q-8 -37 0 -82zM220 390h-31l70 91l37 -10z" />
    <glyph glyph-name="yacute" unicode="y&#x301;" horiz-adv-x="337" 
d="M141 0q-88 -133 -190 -156l-2 31q88 19 157 136q0 3 -1 12l-73 317h42l66 -288l180 288h43zM194 390h-31l70 91l37 -10z" />
    <glyph glyph-name="fi" unicode="fi" horiz-adv-x="347" 
d="M252 0h-39l65 309h-157l-64 -305q-35 -160 -156 -160q-38 0 -53 16l17 28q19 -11 46 -11q80 0 107 127l64 305h-50l7 31h50l3 17q15 71 60 113.5t113 42.5q48 0 79 -27l-24 -30q-32 24 -69 24q-93 0 -120 -123l-3 -17h196z" />
    <glyph glyph-name="fl" unicode="fl" horiz-adv-x="404" 
d="M348 27l-11 -34q-125 6 -88 178l63 299q-17 10 -46 10q-31 0 -54.5 -10.5t-39.5 -27.5t-26 -40t-15 -47l-3 -15h98l-7 -31h-98l-64 -305q-35 -160 -156 -160q-38 0 -53 16l17 28q19 -11 46 -11q80 0 107 127l64 305h-50l7 31h50l2 10q17 81 70 122t120 41q39 0 75 -20
l-65 -307q-15 -73 -9 -106q8 -52 66 -53z" />
    <glyph glyph-name="PSK" unicode="PSK&#x2e;Design&#x28;c&#x29;" horiz-adv-x="954" 
d="M212 520q0 28 -44 28h-38v-57h38q44 0 44 29zM271 519q0 -73 -100 -73h-41v-80h-58v225h110q89 0 89 -72zM779 366l-82 114v-114h-60v225h60v-96l82 96h70l-89 -100l96 -125h-77zM916 666q-5 -26 -30 -26q-31 0 -31 36t31 36q27 0 29 -24h-16q-3 10 -13 10q-13 0 -13 -21
q0 -24 14 -24q11 0 12 13h17zM237 120q0 26 -25 26q-27 0 -27 -25t27 -25q25 0 25 24zM261 121q0 -42 -51 -42q-48 0 -48 42q0 41 50 41q49 0 49 -41zM325 135q0 10 -17 10h-15v-21h15q17 0 17 11zM348 135q0 -27 -38 -27h-17v-25h-21v79h41q35 0 35 -27zM404 83h-23v28
l-36 51h26l24 -34q3 4 22 34h23l-36 -52v-27zM196 17l-7 17l-8 -17h15zM215 0h-13l-4 9h-20l-4 -9h-12l20 43h15zM689 0h-34v43h34v-9h-23v-8h21v-8h-21v-9h23v-9zM774 43l-17 -43h-12l-18 43h12l12 -32l12 32h11zM847 21q0 13 -13 13h-8v-24h8q13 0 13 11zM858 21
q0 -21 -24 -21h-20v43h20q24 0 24 -22zM249 0h-32v43h10v-34h22v-9zM332 30q0 5 -8 5h-6v-9h6q8 0 8 4zM345 32q0 -8 -8 -11q6 -2 10 -21h-13q0 4 -1 8q-3 9 -9 9h-6v-17h-11v43h21q17 0 17 -11zM361 43v-43h-9v43h9zM412 3q-9 -4 -19 -4q-26 0 -26 22q0 23 25 23
q19 0 20 -16h-11q-1 7 -9 7q-13 0 -13 -13q0 -14 14 -14q5 0 8 1v7h-9v8h20v-21zM462 0h-11v18h-22v-18h-11v43h11v-17h22v17h11v-43zM506 34h-14v-34h-12v34h-15v9h41v-9zM565 83h-25v79h25v-79zM668 86q-18 -5 -41 -5q-51 0 -51 41t49 41q40 0 43 -27h-26q-2 11 -18 11
q-24 0 -24 -24q0 -26 27 -26l16 2v14h-19v13h44v-40zM768 83h-23v32h-40v-32h-24v79h24v-31h40v31h23v-79zM864 144h-33v-61h-23v61h-31v18h87v-18zM506 137q0 8 -18 8h-15v-19h15q18 0 18 11zM531 83h-22l-5 20q-1 10 -17 10h-14v-30h-23v79h45q34 0 34 -21q0 -13 -17 -19
q15 -3 15 -19zM650 13q0 -14 -20 -14q-18 0 -18 16h11q0 -7 8 -7q7 0 7 4q0 1 -12.5 5.5t-12.5 12.5q0 14 18 14t18 -14h-11q0 6 -7 6t-7 -5q0 -4 13 -7t13 -11zM809 0h-33v43h33v-9h-21v-8h20v-8h-20v-9h21v-9zM608 9v-9h-34v43h33v-9h-22v-8h21v-8h-21v-9h23zM156 109
q-3 -30 -43 -30q-47 0 -47 43q0 42 49 42q37 0 41 -30h-26q-1 13 -17 13q-23 0 -23 -25t22 -25q17 0 18 12h26zM867 199h-809v25h809v-25zM562 406q0 -79 -58 -116q-46 -30 -118 -30q-61 0 -95.5 26t-34.5 73q0 16 4 31h38q-1 -7 -1 -17q0 -79 99 -79q44 0 79 21
q45 27 45 77q0 38 -52 58q-47 16 -95 32q-52 22 -52 64q0 68 52 104q46 31 119 31q50 0 79.5 -21t29.5 -59q0 -15 -5 -33h-36q2 14 2 19q0 60 -66 60q-60 0 -95.5 -23t-35.5 -62q0 -26 18 -39t75.5 -29.5t80.5 -36t23 -51.5zM947 675q0 -26 -17 -42t-43 -16q-25 0 -41.5 16
t-16.5 42t16.5 42.5t41.5 16.5q26 0 43 -16.5t17 -42.5zM938 674q0 21 -15 35.5t-36 14.5q-20 0 -34 -14.5t-14 -35.5t14 -35t34 -14q21 0 36 14t15 35zM557 30q0 5 -7 5h-7v-9h7q7 0 7 4zM569 32q0 -8 -8 -11q6 -2 10 -21h-12q0 4 -1 8q-3 9 -8 9h-7v-17h-12v43h22
q16 0 16 -11zM702 26h7q7 0 7 4q0 5 -7 5h-7v-9zM730 0h-12q0 4 -1 8q-3 9 -8 9h-7v-17h-10v43h21q15 0 15 -11q0 -8 -8 -11q6 -2 10 -21zM284 0h-32v43h10v-34h22v-9z" />
    <glyph glyph-name="uni1EA0" unicode="A&#x323;" horiz-adv-x="400" 
d="M357 0h-43l-23 153h-205l-86 -153h-43l282 483h40zM286 186l-36 254l-145 -254h181zM169 -77q-2 -12 -12 -20.5t-23 -8.5q-12 0 -18.5 8.5t-4.5 20.5q2 10 12.5 19t22.5 9q13 0 19 -9t4 -19z" />
    <glyph glyph-name="uni1EA1" unicode="a&#x323;" horiz-adv-x="398" 
d="M320 69q-9 -40 3 -68l-39 -8q-11 36 -5 69q-55 -72 -141 -72q-58 0 -90 33.5t-32 89.5q0 88 57 158q60 75 146 75q89 1 151 -50zM296 143l31 136q-51 35 -103 35q-73 -1 -124 -65q-46 -60 -46 -131q0 -44 25.5 -70.5t71.5 -26.5q51 0 92.5 36.5t52.5 85.5zM169 -77
q-2 -12 -12 -20.5t-23 -8.5q-12 0 -18.5 8.5t-4.5 20.5q2 10 12.5 19t22.5 9q13 0 19 -9t4 -19z" />
    <glyph glyph-name="uni1EA2" unicode="A&#x309;" horiz-adv-x="400" 
d="M357 0h-43l-23 153h-205l-86 -153h-43l282 483h40zM286 186l-36 254l-145 -254h181zM355 607q-7 -31 -39.5 -53t-35.5 -34h-31q7 26 38.5 46t36.5 41q3 14 -5 21.5t-24 7.5q-26 0 -51 -28l-16 15q31 40 78 40q27 0 40.5 -14.5t8.5 -41.5z" />
    <glyph glyph-name="uni1EA3" unicode="a&#x309;" horiz-adv-x="398" 
d="M320 69q-9 -40 3 -68l-39 -8q-11 36 -5 69q-55 -72 -141 -72q-58 0 -90 33.5t-32 89.5q0 88 57 158q60 75 146 75q89 1 151 -50zM296 143l31 136q-51 35 -103 35q-73 -1 -124 -65q-46 -60 -46 -131q0 -44 25.5 -70.5t71.5 -26.5q51 0 92.5 36.5t52.5 85.5z
M317.709 458.112q-6.30078 -27.9004 -35.5518 -47.7012q-29.25 -19.8008 -31.9502 -30.6006h-27.9014q6.30078 23.4004 34.6514 41.4004q28.3506 18.001 32.8506 36.9014q2.7002 12.6006 -4.5 19.3506t-21.6006 6.75q-23.4004 0 -45.9014 -25.2002l-14.4004 13.5
q27.9014 36.001 70.2021 36.001q24.3008 0 36.4512 -13.0498q12.1504 -13.0508 7.65039 -37.3516z" />
    <glyph glyph-name="uni1EA4" unicode="&#xc2;&#x301;" horiz-adv-x="400" 
d="M357 0h-43l-23 153h-205l-86 -153h-43l282 483h40zM286 186l-36 254l-145 -254h181zM299 606l53 -78h-37l-35 52l-57 -52h-37l85 78h28zM344.709 557.115h-27.9004l63.002 81.9023l33.3008 -9z" />
    <glyph glyph-name="uni1EA5" unicode="&#xe2;&#x301;" horiz-adv-x="398" 
d="M320 69q-9 -40 3 -68l-39 -8q-11 36 -5 69q-55 -72 -141 -72q-58 0 -90 33.5t-32 89.5q0 88 57 158q60 75 146 75q89 1 151 -50zM296 143l31 136q-51 35 -103 35q-73 -1 -124 -65q-46 -60 -46 -131q0 -44 25.5 -70.5t71.5 -26.5q51 0 92.5 36.5t52.5 85.5zM282 470
l53 -78h-37l-35 52l-57 -52h-37l85 78h28zM319.509 436.512h-27.9014l63.002 81.9023l33.3008 -9z" />
    <glyph glyph-name="uni1EA6" unicode="&#xc2;&#x300;" horiz-adv-x="400" 
d="M357 0h-43l-23 153h-205l-86 -153h-43l282 483h40zM286 186l-36 254l-145 -254h181zM299 606l53 -78h-37l-35 52l-57 -52h-37l85 78h28zM369.91 557.115h-27.9004l-36.002 72.9023l36.9014 9z" />
    <glyph glyph-name="uni1EA7" unicode="&#xe2;&#x300;" horiz-adv-x="398" 
d="M320 69q-9 -40 3 -68l-39 -8q-11 36 -5 69q-55 -72 -141 -72q-58 0 -90 33.5t-32 89.5q0 88 57 158q60 75 146 75q89 1 151 -50zM296 143l31 136q-51 35 -103 35q-73 -1 -124 -65q-46 -60 -46 -131q0 -44 25.5 -70.5t71.5 -26.5q51 0 92.5 36.5t52.5 85.5zM283 470
l53 -78h-37l-35 52l-57 -52h-37l85 78h28zM350.109 436.512h-27.9004l-36.001 72.9023l36.9004 9z" />
    <glyph glyph-name="uni1EA8" unicode="&#xc2;&#x309;" horiz-adv-x="400" 
d="M357 0h-43l-23 153h-205l-86 -153h-43l282 483h40zM286 186l-36 254l-145 -254h181zM299 606l53 -78h-37l-35 52l-57 -52h-37l85 78h28zM413.111 632.717q-6.30078 -27.9004 -35.5508 -47.7012q-29.251 -19.8008 -31.9512 -30.6006h-27.9004
q6.2998 23.4004 34.6504 41.4014q28.3506 18 32.8516 36.9004q2.69922 12.6006 -4.50098 19.3506q-7.2002 6.75098 -21.6006 6.75098q-23.4004 0 -45.9004 -25.2012l-14.4004 13.5q27.9004 36.001 70.2012 36.001q24.3008 0 36.4512 -13.0498
q12.1504 -13.0508 7.65039 -37.3516z" />
    <glyph glyph-name="uni1EA9" unicode="&#xe2;&#x309;" horiz-adv-x="398" 
d="M320 69q-9 -40 3 -68l-39 -8q-11 36 -5 69q-55 -72 -141 -72q-58 0 -90 33.5t-32 89.5q0 88 57 158q60 75 146 75q89 1 151 -50zM296 143l31 136q-51 35 -103 35q-73 -1 -124 -65q-46 -60 -46 -131q0 -44 25.5 -70.5t71.5 -26.5q51 0 92.5 36.5t52.5 85.5zM284 470
l53 -78h-37l-35 52l-57 -52h-37l85 78h28zM398.711 522.914q-6.30078 -27.9004 -35.5508 -47.7012q-29.251 -19.8008 -31.9512 -30.6006h-27.9004q6.2998 23.4004 34.6504 41.4014q28.3506 18 32.8516 36.9004q2.69922 12.6006 -4.50098 19.3506t-21.6006 6.75
q-23.4004 0 -45.9004 -25.2002l-14.4004 13.5q27.9004 36.001 70.2012 36.001q24.3008 0 36.4512 -13.0498q12.1504 -13.0508 7.65039 -37.3516z" />
    <glyph glyph-name="uni1EAA" unicode="&#xc2;&#x303;" horiz-adv-x="400" 
d="M357 0h-43l-23 153h-205l-86 -153h-43l282 483h40zM286 186l-36 254l-145 -254h181zM299 606l53 -78h-37l-35 52l-57 -52h-37l85 78h28zM362 696h28q-15 -62 -61 -62q-13 0 -37.5 14t-33.5 14q-17 0 -26 -32h-26q16 64 58 64q13 0 36 -15t38 -15q17 0 24 32z" />
    <glyph glyph-name="uni1EAB" unicode="&#xe2;&#x303;" horiz-adv-x="398" 
d="M320 69q-9 -40 3 -68l-39 -8q-11 36 -5 69q-55 -72 -141 -72q-58 0 -90 33.5t-32 89.5q0 88 57 158q60 75 146 75q89 1 151 -50zM296 143l31 136q-51 35 -103 35q-73 -1 -124 -65q-46 -60 -46 -131q0 -44 25.5 -70.5t71.5 -26.5q51 0 92.5 36.5t52.5 85.5zM284 470
l53 -78h-37l-35 52l-57 -52h-37l85 78h28zM348 559h28q-15 -62 -61 -62q-13 0 -37.5 14t-33.5 14q-17 0 -26 -32h-26q16 64 58 64q13 0 36 -15t38 -15q17 0 24 32z" />
    <glyph glyph-name="uni1EAC" unicode="&#xc2;&#x323;" horiz-adv-x="400" 
d="M357 0h-43l-23 153h-205l-86 -153h-43l282 483h40zM286 186l-36 254l-145 -254h181zM169 -77q-2 -12 -12 -20.5t-23 -8.5q-12 0 -18.5 8.5t-4.5 20.5q2 10 12.5 19t22.5 9q13 0 19 -9t4 -19zM299 606l53 -78h-37l-35 52l-57 -52h-37l85 78h28z" />
    <glyph glyph-name="uni1EAD" unicode="&#xe2;&#x323;" horiz-adv-x="398" 
d="M320 69q-9 -40 3 -68l-39 -8q-11 36 -5 69q-55 -72 -141 -72q-58 0 -90 33.5t-32 89.5q0 88 57 158q60 75 146 75q89 1 151 -50zM296 143l31 136q-51 35 -103 35q-73 -1 -124 -65q-46 -60 -46 -131q0 -44 25.5 -70.5t71.5 -26.5q51 0 92.5 36.5t52.5 85.5zM148 -77
q-2 -12 -12 -20.5t-23 -8.5q-12 0 -18.5 8.5t-4.5 20.5q2 10 12.5 19t22.5 9q13 0 19 -9t4 -19zM285 470l53 -78h-37l-35 52l-57 -52h-37l85 78h28z" />
    <glyph glyph-name="uni1EAE" unicode="&#x102;&#x301;" horiz-adv-x="400" 
d="M357 0h-43l-23 153h-205l-86 -153h-43l282 483h40zM286 186l-36 254l-145 -254h181zM371 589q-11 -27 -34 -44q-31 -24 -70 -24t-61 24q-14 17 -14 44h35q1 -11 7 -19q12 -18 40 -18t47 18q9 8 16 19h34zM255.607 573.315h-27.9014l63.002 81.9023l33.3008 -9z" />
    <glyph glyph-name="uni1EAF" unicode="&#x103;&#x301;" horiz-adv-x="398" 
d="M320 69q-9 -40 3 -68l-39 -8q-11 36 -5 69q-55 -72 -141 -72q-58 0 -90 33.5t-32 89.5q0 88 57 158q60 75 146 75q89 1 151 -50zM296 143l31 136q-51 35 -103 35q-73 -1 -124 -65q-46 -60 -46 -131q0 -44 25.5 -70.5t71.5 -26.5q51 0 92.5 36.5t52.5 85.5zM366 453
q-11 -27 -34 -44q-31 -24 -70 -24t-61 24q-14 17 -14 44h35q1 -11 7 -19q12 -18 40 -18t47 18q9 8 16 19h34zM253.807 453.612h-27.9004l63.002 81.9023l33.3008 -9z" />
    <glyph glyph-name="uni1EB0" unicode="&#x102;&#x300;" horiz-adv-x="400" 
d="M357 0h-43l-23 153h-205l-86 -153h-43l282 483h40zM286 186l-36 254l-145 -254h181zM371 589q-11 -27 -34 -44q-31 -24 -70 -24t-61 24q-14 17 -14 44h35q1 -11 7 -19q12 -18 40 -18t47 18q9 8 16 19h34zM275.407 575.115h-27.9004l-36.001 72.9023l36.9004 9z" />
    <glyph glyph-name="uni1EB1" unicode="&#x103;&#x300;" horiz-adv-x="398" 
d="M320 69q-9 -40 3 -68l-39 -8q-11 36 -5 69q-55 -72 -141 -72q-58 0 -90 33.5t-32 89.5q0 88 57 158q60 75 146 75q89 1 151 -50zM296 143l31 136q-51 35 -103 35q-73 -1 -124 -65q-46 -60 -46 -131q0 -44 25.5 -70.5t71.5 -26.5q51 0 92.5 36.5t52.5 85.5zM375 453
q-11 -27 -34 -44q-31 -24 -70 -24t-61 24q-14 17 -14 44h35q1 -11 7 -19q12 -18 40 -18t47 18q9 8 16 19h34zM279.008 452.712h-27.9014l-36.001 72.9023l36.9014 9z" />
    <glyph glyph-name="uni1EB2" unicode="&#x102;&#x309;" horiz-adv-x="400" 
d="M357 0h-43l-23 153h-205l-86 -153h-43l282 483h40zM286 186l-36 254l-145 -254h181zM371 589q-11 -27 -34 -44q-31 -24 -70 -24t-61 24q-14 17 -14 44h35q1 -11 7 -19q12 -18 40 -18t47 18q9 8 16 19h34zM324.909 653.418q-6.30078 -27.9014 -35.5518 -47.7012
q-29.25 -19.8008 -31.9502 -30.6016h-27.9014q6.30078 23.4014 34.6514 41.4014q28.3506 18.001 32.8506 36.9014q2.7002 12.5996 -4.5 19.3506q-7.2002 6.75 -21.6006 6.75q-23.4004 0 -45.9014 -25.2012l-14.4004 13.501q27.9014 36.001 70.2021 36.001
q24.3008 0 36.4512 -13.0508q12.1504 -13.0498 7.65039 -37.3506z" />
    <glyph glyph-name="uni1EB3" unicode="&#x103;&#x309;" horiz-adv-x="398" 
d="M320 69q-9 -40 3 -68l-39 -8q-11 36 -5 69q-55 -72 -141 -72q-58 0 -90 33.5t-32 89.5q0 88 57 158q60 75 146 75q89 1 151 -50zM296 143l31 136q-51 35 -103 35q-73 -1 -124 -65q-46 -60 -46 -131q0 -44 25.5 -70.5t71.5 -26.5q51 0 92.5 36.5t52.5 85.5zM372 453
q-11 -27 -34 -44q-31 -24 -70 -24t-61 24q-14 17 -14 44h35q1 -11 7 -19q12 -18 40 -18t47 18q9 8 16 19h34zM326.709 533.715q-6.30078 -27.9014 -35.5508 -47.7012q-29.251 -19.8008 -31.9512 -30.6016h-27.9004q6.2998 23.4004 34.6504 41.4014t32.8516 36.9014
q2.69922 12.5996 -4.50098 19.3506q-7.2002 6.75 -21.6006 6.75q-23.4004 0 -45.9004 -25.2012l-14.4004 13.501q27.9004 36.001 70.2012 36.001q24.3008 0 36.4512 -13.0508q12.1504 -13.0498 7.65039 -37.3506z" />
    <glyph glyph-name="uni1EB4" unicode="&#x102;&#x303;" horiz-adv-x="400" 
d="M357 0h-43l-23 153h-205l-86 -153h-43l282 483h40zM286 186l-36 254l-145 -254h181zM371 589q-11 -27 -34 -44q-31 -24 -70 -24t-61 24q-14 17 -14 44h35q1 -11 7 -19q12 -18 40 -18t47 18q9 8 16 19h34zM358 686h28q-15 -62 -61 -62q-13 0 -37.5 14t-33.5 14
q-17 0 -26 -32h-26q16 64 58 64q13 0 36 -15t38 -15q17 0 24 32z" />
    <glyph glyph-name="uni1EB5" unicode="&#x103;&#x303;" horiz-adv-x="398" 
d="M320 69q-9 -40 3 -68l-39 -8q-11 36 -5 69q-55 -72 -141 -72q-58 0 -90 33.5t-32 89.5q0 88 57 158q60 75 146 75q89 1 151 -50zM296 143l31 136q-51 35 -103 35q-73 -1 -124 -65q-46 -60 -46 -131q0 -44 25.5 -70.5t71.5 -26.5q51 0 92.5 36.5t52.5 85.5zM368 453
q-11 -27 -34 -44q-31 -24 -70 -24t-61 24q-14 17 -14 44h35q1 -11 7 -19q12 -18 40 -18t47 18q9 8 16 19h34zM356 548h28q-15 -62 -61 -62q-13 0 -37.5 14t-33.5 14q-17 0 -26 -32h-26q16 64 58 64q13 0 36 -15t38 -15q17 0 24 32z" />
    <glyph glyph-name="uni1EB6" unicode="&#x102;&#x323;" horiz-adv-x="400" 
d="M357 0h-43l-23 153h-205l-86 -153h-43l282 483h40zM286 186l-36 254l-145 -254h181zM169 -77q-2 -12 -12 -20.5t-23 -8.5q-12 0 -18.5 8.5t-4.5 20.5q2 10 12.5 19t22.5 9q13 0 19 -9t4 -19zM371 589q-11 -27 -34 -44q-31 -24 -70 -24t-61 24q-14 17 -14 44h35
q1 -11 7 -19q12 -18 40 -18t47 18q9 8 16 19h34z" />
    <glyph glyph-name="uni1EB7" unicode="&#x103;&#x323;" horiz-adv-x="398" 
d="M320 69q-9 -40 3 -68l-39 -8q-11 36 -5 69q-55 -72 -141 -72q-58 0 -90 33.5t-32 89.5q0 88 57 158q60 75 146 75q89 1 151 -50zM296 143l31 136q-51 35 -103 35q-73 -1 -124 -65q-46 -60 -46 -131q0 -44 25.5 -70.5t71.5 -26.5q51 0 92.5 36.5t52.5 85.5zM149 -77
q-2 -12 -12 -20.5t-23 -8.5q-12 0 -18.5 8.5t-4.5 20.5q2 10 12.5 19t22.5 9q13 0 19 -9t4 -19zM365 453q-11 -27 -34 -44q-31 -24 -70 -24t-61 24q-14 17 -14 44h35q1 -11 7 -19q12 -18 40 -18t47 18q9 8 16 19h34z" />
    <glyph glyph-name="uni1EB8" unicode="E&#x323;" horiz-adv-x="351" 
d="M270 0h-259l101 476h259l-7 -33h-220l-38 -175h196l-7 -33h-196l-42 -202h220zM144 -77q-2 -12 -12 -20.5t-23 -8.5q-12 0 -18.5 8.5t-4.5 20.5q2 10 12.5 19t22.5 9q13 0 19 -9t4 -19z" />
    <glyph glyph-name="uni1EB9" unicode="e&#x323;" horiz-adv-x="374" 
d="M344 253q0 -119 -203 -119q-37 0 -87 4q-1 -8 -1 -15q0 -98 114 -98q58 0 124 23l-4 -33q-63 -24 -131 -24q-65 0 -104 35t-39 94q0 95 67 163q64 64 147 64q117 0 117 -94zM309 254q0 62 -82 62q-51 0 -101 -41q-53 -44 -70 -105q41 -3 73 -3q180 0 180 87zM156 -77
q-2 -12 -12 -20.5t-23 -8.5q-12 0 -18.5 8.5t-4.5 20.5q2 10 12.5 19t22.5 9q13 0 19 -9t4 -19z" />
    <glyph glyph-name="uni1EBA" unicode="E&#x309;" horiz-adv-x="351" 
d="M270 0h-259l101 476h259l-7 -33h-220l-38 -175h196l-7 -33h-196l-42 -202h220zM334 607q-7 -31 -39.5 -53t-35.5 -34h-31q7 26 38.5 46t36.5 41q3 14 -5 21.5t-24 7.5q-26 0 -51 -28l-16 15q31 40 78 40q27 0 40.5 -14.5t8.5 -41.5z" />
    <glyph glyph-name="uni1EBB" unicode="e&#x309;" horiz-adv-x="374" 
d="M344 253q0 -119 -203 -119q-37 0 -87 4q-1 -8 -1 -15q0 -98 114 -98q58 0 124 23l-4 -33q-63 -24 -131 -24q-65 0 -104 35t-39 94q0 95 67 163q64 64 147 64q117 0 117 -94zM309 254q0 62 -82 62q-51 0 -101 -41q-53 -44 -70 -105q41 -3 73 -3q180 0 180 87z
M271.808 458.112q-6.30078 -27.9004 -35.5508 -47.7012q-29.251 -19.8008 -31.9512 -30.6006h-27.9014q6.30078 23.4004 34.6514 41.4004q28.3506 18.001 32.8506 36.9014q2.7002 12.6006 -4.5 19.3506t-21.6006 6.75q-23.4004 0 -45.9014 -25.2002l-14.4004 13.5
q27.9014 36.001 70.2021 36.001q24.3008 0 36.4512 -13.0498q12.1504 -13.0508 7.65039 -37.3516z" />
    <glyph glyph-name="uni1EBC" unicode="E&#x303;" horiz-adv-x="351" 
d="M270 0h-259l101 476h259l-7 -33h-220l-38 -175h196l-7 -33h-196l-42 -202h220zM314 590h28q-15 -62 -61 -62q-13 0 -37.5 14t-33.5 14q-17 0 -26 -32h-26q16 64 58 64q13 0 36 -15t38 -15q17 0 24 32z" />
    <glyph glyph-name="uni1EBD" unicode="e&#x303;" horiz-adv-x="374" 
d="M344 253q0 -119 -203 -119q-37 0 -87 4q-1 -8 -1 -15q0 -98 114 -98q58 0 124 23l-4 -33q-63 -24 -131 -24q-65 0 -104 35t-39 94q0 95 67 163q64 64 147 64q117 0 117 -94zM309 254q0 62 -82 62q-51 0 -101 -41q-53 -44 -70 -105q41 -3 73 -3q180 0 180 87zM297 454h28
q-15 -62 -61 -62q-13 0 -37.5 14t-33.5 14q-17 0 -26 -32h-26q16 64 58 64q13 0 36 -15t38 -15q17 0 24 32z" />
    <glyph glyph-name="uni1EBE" unicode="&#xca;&#x301;" horiz-adv-x="351" 
d="M270 0h-259l101 476h259l-7 -33h-220l-38 -175h196l-7 -33h-196l-42 -202h220zM274 606l53 -78h-37l-35 52l-57 -52h-37l85 78h28zM313.209 557.115h-27.9014l63.002 81.9023l33.3008 -9z" />
    <glyph glyph-name="uni1EBF" unicode="&#xea;&#x301;" horiz-adv-x="374" 
d="M344 253q0 -119 -203 -119q-37 0 -87 4q-1 -8 -1 -15q0 -98 114 -98q58 0 124 23l-4 -33q-63 -24 -131 -24q-65 0 -104 35t-39 94q0 95 67 163q64 64 147 64q117 0 117 -94zM309 254q0 62 -82 62q-51 0 -101 -41q-53 -44 -70 -105q41 -3 73 -3q180 0 180 87zM257 470
l53 -78h-37l-35 52l-57 -52h-37l85 78h28zM306.908 436.512h-27.9004l63.002 81.9023l33.3008 -9z" />
    <glyph glyph-name="uni1EC0" unicode="&#xca;&#x300;" horiz-adv-x="351" 
d="M270 0h-259l101 476h259l-7 -33h-220l-38 -175h196l-7 -33h-196l-42 -202h220zM274 606l53 -78h-37l-35 52l-57 -52h-37l85 78h28zM340.209 557.115h-27.9004l-36.001 72.9023l36.9014 9z" />
    <glyph glyph-name="uni1EC1" unicode="&#xea;&#x300;" horiz-adv-x="374" 
d="M344 253q0 -119 -203 -119q-37 0 -87 4q-1 -8 -1 -15q0 -98 114 -98q58 0 124 23l-4 -33q-63 -24 -131 -24q-65 0 -104 35t-39 94q0 95 67 163q64 64 147 64q117 0 117 -94zM309 254q0 62 -82 62q-51 0 -101 -41q-53 -44 -70 -105q41 -3 73 -3q180 0 180 87zM257 470
l53 -78h-37l-35 52l-57 -52h-37l85 78h28zM369 437h-31l-40 81l41 10z" />
    <glyph glyph-name="uni1EC2" unicode="&#xca;&#x309;" horiz-adv-x="351" 
d="M270 0h-259l101 476h259l-7 -33h-220l-38 -175h196l-7 -33h-196l-42 -202h220zM274 606l53 -78h-37l-35 52l-57 -52h-37l85 78h28zM396.011 632.717q-6.2998 -27.9004 -35.5508 -47.7012t-31.9512 -30.6006h-27.9004q6.2998 23.4004 34.6504 41.4014
q28.3506 18 32.8516 36.9004q2.7002 12.6006 -4.50098 19.3506q-7.19922 6.75098 -21.5996 6.75098q-23.4014 0 -45.9014 -25.2012l-14.4004 13.5q27.9004 36.001 70.2012 36.001q24.3008 0 36.4512 -13.0498q12.1504 -13.0508 7.65039 -37.3516z" />
    <glyph glyph-name="uni1EC3" unicode="&#xea;&#x309;" horiz-adv-x="374" 
d="M344 253q0 -119 -203 -119q-37 0 -87 4q-1 -8 -1 -15q0 -98 114 -98q58 0 124 23l-4 -33q-63 -24 -131 -24q-65 0 -104 35t-39 94q0 95 67 163q64 64 147 64q117 0 117 -94zM309 254q0 62 -82 62q-51 0 -101 -41q-53 -44 -70 -105q41 -3 73 -3q180 0 180 87zM257 470
l53 -78h-37l-35 52l-57 -52h-37l85 78h28zM375.311 522.914q-6.30078 -27.9004 -35.5518 -47.7012q-29.25 -19.8008 -31.9502 -30.6006h-27.9014q6.30078 23.4004 34.6514 41.4014q28.3506 18 32.8506 36.9004q2.7002 12.6006 -4.5 19.3506t-21.6006 6.75
q-23.4004 0 -45.9014 -25.2002l-14.4004 13.5q27.9014 36.001 70.2021 36.001q24.3008 0 36.4512 -13.0498q12.1504 -13.0508 7.65039 -37.3516z" />
    <glyph glyph-name="uni1EC4" unicode="&#xca;&#x303;" horiz-adv-x="351" 
d="M270 0h-259l101 476h259l-7 -33h-220l-38 -175h196l-7 -33h-196l-42 -202h220zM274 606l53 -78h-37l-35 52l-57 -52h-37l85 78h28zM335 696h28q-15 -62 -61 -62q-13 0 -37.5 14t-33.5 14q-17 0 -26 -32h-26q16 64 58 64q13 0 36 -15t38 -15q17 0 24 32z" />
    <glyph glyph-name="uni1EC5" unicode="&#xea;&#x303;" horiz-adv-x="374" 
d="M344 253q0 -119 -203 -119q-37 0 -87 4q-1 -8 -1 -15q0 -98 114 -98q58 0 124 23l-4 -33q-63 -24 -131 -24q-65 0 -104 35t-39 94q0 95 67 163q64 64 147 64q117 0 117 -94zM309 254q0 62 -82 62q-51 0 -101 -41q-53 -44 -70 -105q41 -3 73 -3q180 0 180 87zM257 470
l53 -78h-37l-35 52l-57 -52h-37l85 78h28zM319 559h28q-15 -62 -61 -62q-13 0 -37.5 14t-33.5 14q-17 0 -26 -32h-26q16 64 58 64q13 0 36 -15t38 -15q17 0 24 32z" />
    <glyph glyph-name="uni1EC6" unicode="&#xca;&#x323;" horiz-adv-x="351" 
d="M270 0h-259l101 476h259l-7 -33h-220l-38 -175h196l-7 -33h-196l-42 -202h220zM144 -77q-2 -12 -12 -20.5t-23 -8.5q-12 0 -18.5 8.5t-4.5 20.5q2 10 12.5 19t22.5 9q13 0 19 -9t4 -19zM274 606l53 -78h-37l-35 52l-57 -52h-37l85 78h28z" />
    <glyph glyph-name="uni1EC7" unicode="&#xea;&#x323;" horiz-adv-x="374" 
d="M344 253q0 -119 -203 -119q-37 0 -87 4q-1 -8 -1 -15q0 -98 114 -98q58 0 124 23l-4 -33q-63 -24 -131 -24q-65 0 -104 35t-39 94q0 95 67 163q64 64 147 64q117 0 117 -94zM309 254q0 62 -82 62q-51 0 -101 -41q-53 -44 -70 -105q41 -3 73 -3q180 0 180 87zM157 -77
q-2 -12 -12 -20.5t-23 -8.5q-12 0 -18.5 8.5t-4.5 20.5q2 10 12.5 19t22.5 9q13 0 19 -9t4 -19zM257 470l53 -78h-37l-35 52l-57 -52h-37l85 78h28z" />
    <glyph glyph-name="uni1EC8" unicode="I&#x309;" horiz-adv-x="147" 
d="M50 0h-39l101 476h39zM232 607q-7 -31 -39.5 -53t-35.5 -34h-31q7 26 38.5 46t36.5 41q3 14 -5 21.5t-24 7.5q-26 0 -51 -28l-16 15q31 40 78 40q27 0 40.5 -14.5t8.5 -41.5z" />
    <glyph glyph-name="uni1EC9" unicode="i&#x309;" horiz-adv-x="143" 
d="M201 471q-7 -31 -39.5 -53t-35.5 -34h-31q7 26 38.5 46t36.5 41q3 14 -5 21.5t-24 7.5q-26 0 -51 -28l-16 15q31 40 78 40q27 0 40.5 -14.5t8.5 -41.5zM47 0h-38l72 340h38z" />
    <glyph glyph-name="uni1ECA" unicode="I&#x323;" horiz-adv-x="147" 
d="M50 0h-39l101 476h39zM43 -77q-2 -12 -12 -20.5t-23 -8.5q-12 0 -18.5 8.5t-4.5 20.5q2 10 12.5 19t22.5 9q13 0 19 -9t4 -19z" />
    <glyph glyph-name="uni1ECB" unicode="i&#x323;" horiz-adv-x="143" 
d="M48 0h-39l72 340h39zM153 443q-3 -14 -14 -22.5t-25 -8.5t-20.5 8.5t-3.5 22.5t13 23t24 9t21.5 -9t4.5 -23zM42 -77q-2 -12 -12 -20.5t-23 -8.5q-12 0 -18.5 8.5t-4.5 20.5q2 10 12.5 19t22.5 9q13 0 19 -9t4 -19z" />
    <glyph glyph-name="uni1ECC" unicode="O&#x323;" horiz-adv-x="486" 
d="M471 237q-23 -107 -99.5 -177t-174.5 -70t-144.5 70t-23.5 177t99 177t174 70t145 -70t24 -177zM432 237q19 88 -19 150.5t-118 62.5t-144 -62.5t-83 -150.5t19 -150.5t118 -62.5t144 62.5t83 150.5zM212 -77q-2 -12 -12 -20.5t-23 -8.5q-12 0 -18.5 8.5t-4.5 20.5
q2 10 12.5 19t22.5 9q13 0 19 -9t4 -19z" />
    <glyph glyph-name="uni1ECD" unicode="o&#x323;" horiz-adv-x="398" 
d="M362 169q-16 -75 -74 -127t-135 -52t-113 52t-20 127t74 126.5t135 51.5t113 -51.5t20 -126.5zM324 169q14 62 -15 103.5t-87 41.5t-104 -41.5t-60 -103.5q-13 -62 15.5 -104t86.5 -42t104.5 42t59.5 104zM168 -77q-2 -12 -12 -20.5t-23 -8.5q-12 0 -18.5 8.5t-4.5 20.5
q2 10 12.5 19t22.5 9q13 0 19 -9t4 -19z" />
    <glyph glyph-name="uni1ECE" unicode="O&#x309;" horiz-adv-x="486" 
d="M471 237q-23 -107 -99.5 -177t-174.5 -70t-144.5 70t-23.5 177t99 177t174 70t145 -70t24 -177zM432 237q19 88 -19 150.5t-118 62.5t-144 -62.5t-83 -150.5t19 -150.5t118 -62.5t144 62.5t83 150.5zM401 607q-7 -31 -39.5 -53t-35.5 -34h-31q7 26 38.5 46t36.5 41
q3 14 -5 21.5t-24 7.5q-26 0 -51 -28l-16 15q31 40 78 40q27 0 40.5 -14.5t8.5 -41.5z" />
    <glyph glyph-name="uni1ECF" unicode="o&#x309;" horiz-adv-x="398" 
d="M362 169q-16 -75 -74 -127t-135 -52t-113 52t-20 127t74 126.5t135 51.5t113 -51.5t20 -126.5zM324 169q14 62 -15 103.5t-87 41.5t-104 -41.5t-60 -103.5q-13 -62 15.5 -104t86.5 -42t104.5 42t59.5 104zM328 471q-7 -31 -39.5 -53t-35.5 -34h-31q7 26 38.5 46t36.5 41
q3 14 -5 21.5t-24 7.5q-26 0 -51 -28l-16 15q31 40 78 40q27 0 40.5 -14.5t8.5 -41.5z" />
    <glyph glyph-name="uni1ED0" unicode="&#xd4;&#x301;" horiz-adv-x="486" 
d="M471 237q-23 -107 -99.5 -177t-174.5 -70t-144.5 70t-23.5 177t99 177t174 70t145 -70t24 -177zM432 237q19 88 -19 150.5t-118 62.5t-144 -62.5t-83 -150.5t19 -150.5t118 -62.5t144 62.5t83 150.5zM342 606l53 -78h-37l-35 52l-57 -52h-37l85 78h28zM393.311 557.115
h-27.9004l63.002 81.9023l33.3008 -9z" />
    <glyph glyph-name="uni1ED1" unicode="&#xf4;&#x301;" horiz-adv-x="398" 
d="M362 169q-16 -75 -74 -127t-135 -52t-113 52t-20 127t74 126.5t135 51.5t113 -51.5t20 -126.5zM324 169q14 62 -15 103.5t-87 41.5t-104 -41.5t-60 -103.5q-13 -62 15.5 -104t86.5 -42t104.5 42t59.5 104zM269 470l53 -78h-37l-35 52l-57 -52h-37l85 78h28z
M320.408 436.512h-27.9004l63.002 81.9023l33.3008 -9z" />
    <glyph glyph-name="uni1ED2" unicode="&#xd4;&#x300;" horiz-adv-x="486" 
d="M471 237q-23 -107 -99.5 -177t-174.5 -70t-144.5 70t-23.5 177t99 177t174 70t145 -70t24 -177zM432 237q19 88 -19 150.5t-118 62.5t-144 -62.5t-83 -150.5t19 -150.5t118 -62.5t144 62.5t83 150.5zM342 606l53 -78h-37l-35 52l-57 -52h-37l85 78h28zM418.512 557.115
h-27.9014l-36.001 72.9023l36.9014 9z" />
    <glyph glyph-name="uni1ED3" unicode="&#xf4;&#x300;" horiz-adv-x="398" 
d="M362 169q-16 -75 -74 -127t-135 -52t-113 52t-20 127t74 126.5t135 51.5t113 -51.5t20 -126.5zM324 169q14 62 -15 103.5t-87 41.5t-104 -41.5t-60 -103.5q-13 -62 15.5 -104t86.5 -42t104.5 42t59.5 104zM269 470l53 -78h-37l-35 52l-57 -52h-37l85 78h28z
M348.31 436.512h-27.9014l-36 72.9023l36.9004 9z" />
    <glyph glyph-name="uni1ED4" unicode="&#xd4;&#x309;" horiz-adv-x="486" 
d="M471 237q-23 -107 -99.5 -177t-174.5 -70t-144.5 70t-23.5 177t99 177t174 70t145 -70t24 -177zM432 237q19 88 -19 150.5t-118 62.5t-144 -62.5t-83 -150.5t19 -150.5t118 -62.5t144 62.5t83 150.5zM342 606l53 -78h-37l-35 52l-57 -52h-37l85 78h28zM459.912 632.717
q-6.2998 -27.9004 -35.5508 -47.7012t-31.9512 -30.6006h-27.9004q6.30078 23.4004 34.6514 41.4014q28.3506 18 32.8506 36.9004q2.7002 12.6006 -4.5 19.3506q-7.2002 6.75098 -21.6006 6.75098q-23.4004 0 -45.9014 -25.2012l-14.4004 13.5
q27.9004 36.001 70.2021 36.001q24.3008 0 36.4512 -13.0498q12.1494 -13.0508 7.64941 -37.3516z" />
    <glyph glyph-name="uni1ED5" unicode="&#xf4;&#x309;" horiz-adv-x="398" 
d="M362 169q-16 -75 -74 -127t-135 -52t-113 52t-20 127t74 126.5t135 51.5t113 -51.5t20 -126.5zM324 169q14 62 -15 103.5t-87 41.5t-104 -41.5t-60 -103.5q-13 -62 15.5 -104t86.5 -42t104.5 42t59.5 104zM269 470l53 -78h-37l-35 52l-57 -52h-37l85 78h28z
M387.011 522.914q-6.30078 -27.9004 -35.5508 -47.7012q-29.251 -19.8008 -31.9512 -30.6006h-27.9014q6.30078 23.4004 34.6514 41.4014q28.3506 18 32.8506 36.9004q2.7002 12.6006 -4.5 19.3506t-21.6006 6.75q-23.4004 0 -45.9014 -25.2002l-14.4004 13.5
q27.9014 36.001 70.2021 36.001q24.3008 0 36.4512 -13.0498q12.1504 -13.0508 7.65039 -37.3516z" />
    <glyph glyph-name="uni1ED6" unicode="&#xd4;&#x303;" horiz-adv-x="486" 
d="M471 237q-23 -107 -99.5 -177t-174.5 -70t-144.5 70t-23.5 177t99 177t174 70t145 -70t24 -177zM432 237q19 88 -19 150.5t-118 62.5t-144 -62.5t-83 -150.5t19 -150.5t118 -62.5t144 62.5t83 150.5zM342 606l53 -78h-37l-35 52l-57 -52h-37l85 78h28zM402 696h28
q-15 -62 -61 -62q-13 0 -37.5 14t-33.5 14q-17 0 -26 -32h-26q16 64 58 64q13 0 36 -15t38 -15q17 0 24 32z" />
    <glyph glyph-name="uni1ED7" unicode="&#xf4;&#x303;" horiz-adv-x="398" 
d="M362 169q-16 -75 -74 -127t-135 -52t-113 52t-20 127t74 126.5t135 51.5t113 -51.5t20 -126.5zM324 169q14 62 -15 103.5t-87 41.5t-104 -41.5t-60 -103.5q-13 -62 15.5 -104t86.5 -42t104.5 42t59.5 104zM269 470l53 -78h-37l-35 52l-57 -52h-37l85 78h28zM331 559h28
q-15 -62 -61 -62q-13 0 -37.5 14t-33.5 14q-17 0 -26 -32h-26q16 64 58 64q13 0 36 -15t38 -15q17 0 24 32z" />
    <glyph glyph-name="uni1ED8" unicode="&#xd4;&#x323;" horiz-adv-x="486" 
d="M471 237q-23 -107 -99.5 -177t-174.5 -70t-144.5 70t-23.5 177t99 177t174 70t145 -70t24 -177zM432 237q19 88 -19 150.5t-118 62.5t-144 -62.5t-83 -150.5t19 -150.5t118 -62.5t144 62.5t83 150.5zM213 -77q-2 -12 -12 -20.5t-23 -8.5q-12 0 -18.5 8.5t-4.5 20.5
q2 10 12.5 19t22.5 9q13 0 19 -9t4 -19zM342 606l53 -78h-37l-35 52l-57 -52h-37l85 78h28z" />
    <glyph glyph-name="uni1ED9" unicode="&#xf4;&#x323;" horiz-adv-x="398" 
d="M362 169q-16 -75 -74 -127t-135 -52t-113 52t-20 127t74 126.5t135 51.5t113 -51.5t20 -126.5zM324 169q14 62 -15 103.5t-87 41.5t-104 -41.5t-60 -103.5q-13 -62 15.5 -104t86.5 -42t104.5 42t59.5 104zM168 -77q-2 -12 -12 -20.5t-23 -8.5q-12 0 -18.5 8.5t-4.5 20.5
q2 10 12.5 19t22.5 9q13 0 19 -9t4 -19zM269 470l53 -78h-37l-35 52l-57 -52h-37l85 78h28z" />
    <glyph glyph-name="uni1EDA" unicode="&#x1a0;&#x301;" horiz-adv-x="486" 
d="M471 237q-23 -107 -99.5 -177t-174.5 -70t-144.5 70t-23.5 177t99 177t174 70q87 0 135 -57q52 45 62 94h32q-4 -22 -25 -52q-24 -35 -56 -59q43 -69 21 -173zM432 237q19 88 -19 150.5t-118 62.5t-144 -62.5t-83 -150.5t19 -150.5t118 -62.5t144 62.5t83 150.5zM293 526
h-31l70 91l37 -10z" />
    <glyph glyph-name="uni1EDB" unicode="&#x1a1;&#x301;" horiz-adv-x="398" 
d="M362 169q-16 -75 -74 -127t-135 -52t-113 52t-20 127t74 126.5t135 51.5q67 0 106 -43q43 34 59 94h33q-15 -61 -79 -111q29 -50 14 -118zM324 169q14 62 -15 103.5t-87 41.5t-104 -41.5t-60 -103.5q-13 -62 15.5 -104t86.5 -42t104.5 42t59.5 104zM220 390h-31l70 91
l37 -10z" />
    <glyph glyph-name="uni1EDC" unicode="&#x1a0;&#x300;" horiz-adv-x="486" 
d="M471 237q-23 -107 -99.5 -177t-174.5 -70t-144.5 70t-23.5 177t99 177t174 70q87 0 135 -57q52 45 62 94h32q-4 -22 -25 -52q-24 -35 -56 -59q43 -69 21 -173zM432 237q19 88 -19 150.5t-118 62.5t-144 -62.5t-83 -150.5t19 -150.5t118 -62.5t144 62.5t83 150.5zM361 526
h-31l-40 81l41 10z" />
    <glyph glyph-name="uni1EDD" unicode="&#x1a1;&#x300;" horiz-adv-x="398" 
d="M362 169q-16 -75 -74 -127t-135 -52t-113 52t-20 127t74 126.5t135 51.5q67 0 106 -43q43 34 59 94h33q-15 -61 -79 -111q29 -50 14 -118zM324 169q14 62 -15 103.5t-87 41.5t-104 -41.5t-60 -103.5q-13 -62 15.5 -104t86.5 -42t104.5 42t59.5 104zM288 390h-31l-40 81
l41 10z" />
    <glyph glyph-name="uni1EDE" unicode="&#x1a0;&#x309;" horiz-adv-x="486" 
d="M471 237q-23 -107 -99.5 -177t-174.5 -70t-144.5 70t-23.5 177t99 177t174 70q87 0 135 -57q52 45 62 94h32q-4 -22 -25 -52q-24 -35 -56 -59q43 -69 21 -173zM432 237q19 88 -19 150.5t-118 62.5t-144 -62.5t-83 -150.5t19 -150.5t118 -62.5t144 62.5t83 150.5zM401 607
q-7 -31 -39.5 -53t-35.5 -34h-31q7 26 38.5 46t36.5 41q3 14 -5 21.5t-24 7.5q-26 0 -51 -28l-16 15q31 40 78 40q27 0 40.5 -14.5t8.5 -41.5z" />
    <glyph glyph-name="uni1EDF" unicode="&#x1a1;&#x309;" horiz-adv-x="398" 
d="M362 169q-16 -75 -74 -127t-135 -52t-113 52t-20 127t74 126.5t135 51.5q67 0 106 -43q43 34 59 94h33q-15 -61 -79 -111q29 -50 14 -118zM324 169q14 62 -15 103.5t-87 41.5t-104 -41.5t-60 -103.5q-13 -62 15.5 -104t86.5 -42t104.5 42t59.5 104zM282.607 458.112
q-6.2998 -27.9004 -35.5508 -47.7012t-31.9512 -30.6006h-27.9004q6.2998 23.4004 34.6514 41.4004q28.3506 18.001 32.8506 36.9014q2.7002 12.6006 -4.5 19.3506t-21.6006 6.75q-23.4014 0 -45.9014 -25.2002l-14.4004 13.5q27.9004 36.001 70.2021 36.001
q24.2998 0 36.4502 -13.0498q12.1504 -13.0508 7.65039 -37.3516z" />
    <glyph glyph-name="uni1EE0" unicode="&#x1a0;&#x303;" horiz-adv-x="486" 
d="M471 237q-23 -107 -99.5 -177t-174.5 -70t-144.5 70t-23.5 177t99 177t174 70q87 0 135 -57q52 45 62 94h32q-4 -22 -25 -52q-24 -35 -56 -59q43 -69 21 -173zM432 237q19 88 -19 150.5t-118 62.5t-144 -62.5t-83 -150.5t19 -150.5t118 -62.5t144 62.5t83 150.5zM381 590
h28q-15 -62 -61 -62q-13 0 -37.5 14t-33.5 14q-17 0 -26 -32h-26q16 64 58 64q13 0 36 -15t38 -15q17 0 24 32z" />
    <glyph glyph-name="uni1EE1" unicode="&#x1a1;&#x303;" horiz-adv-x="398" 
d="M362 169q-16 -75 -74 -127t-135 -52t-113 52t-20 127t74 126.5t135 51.5q67 0 106 -43q43 34 59 94h33q-15 -61 -79 -111q29 -50 14 -118zM324 169q14 62 -15 103.5t-87 41.5t-104 -41.5t-60 -103.5q-13 -62 15.5 -104t86.5 -42t104.5 42t59.5 104zM309 454h28
q-15 -62 -61 -62q-13 0 -37.5 14t-33.5 14q-17 0 -26 -32h-26q16 64 58 64q13 0 36 -15t38 -15q17 0 24 32z" />
    <glyph glyph-name="uni1EE2" unicode="&#x1a0;&#x323;" horiz-adv-x="486" 
d="M471 237q-23 -107 -99.5 -177t-174.5 -70t-144.5 70t-23.5 177t99 177t174 70q87 0 135 -57q52 45 62 94h32q-4 -22 -25 -52q-24 -35 -56 -59q43 -69 21 -173zM432 237q19 88 -19 150.5t-118 62.5t-144 -62.5t-83 -150.5t19 -150.5t118 -62.5t144 62.5t83 150.5zM212 -77
q-2 -12 -12 -20.5t-23 -8.5q-12 0 -18.5 8.5t-4.5 20.5q2 10 12.5 19t22.5 9q13 0 19 -9t4 -19z" />
    <glyph glyph-name="uni1EE3" unicode="&#x1a1;&#x323;" horiz-adv-x="398" 
d="M362 169q-16 -75 -74 -127t-135 -52t-113 52t-20 127t74 126.5t135 51.5q67 0 106 -43q43 34 59 94h33q-15 -61 -79 -111q29 -50 14 -118zM324 169q14 62 -15 103.5t-87 41.5t-104 -41.5t-60 -103.5q-13 -62 15.5 -104t86.5 -42t104.5 42t59.5 104zM168 -77
q-2 -12 -12 -20.5t-23 -8.5q-12 0 -18.5 8.5t-4.5 20.5q2 10 12.5 19t22.5 9q13 0 19 -9t4 -19z" />
    <glyph glyph-name="uni1EE4" unicode="U&#x323;" horiz-adv-x="466" 
d="M411 201q-44 -210 -223 -210t-135 210l59 275h39l-59 -274q-20 -94 10 -136t93 -42q64 0 111 42t66 136l59 274h39zM202 -77q-2 -12 -12 -20.5t-23 -8.5q-12 0 -18.5 8.5t-4.5 20.5q2 10 12.5 19t22.5 9q13 0 19 -9t4 -19z" />
    <glyph glyph-name="uni1EE5" unicode="u&#x323;" horiz-adv-x="390" 
d="M312 1l-39 -8q-5 34 -2 66q-58 -68 -142 -68q-122 0 -89 158l26 121q8 42 -3 68l39 8q11 -34 5 -67l-26 -123q-28 -131 64 -131q43 0 84 28q45 32 55 81l44 206h39l-55 -257q-8 -37 0 -82zM164 -77q-2 -12 -12 -20.5t-23 -8.5q-12 0 -18.5 8.5t-4.5 20.5q2 10 12.5 19
t22.5 9q13 0 19 -9t4 -19z" />
    <glyph glyph-name="uni1EE6" unicode="U&#x309;" horiz-adv-x="466" 
d="M411 201q-44 -210 -223 -210t-135 210l59 275h39l-59 -274q-20 -94 10 -136t93 -42q64 0 111 42t66 136l59 274h39zM391 607q-7 -31 -39.5 -53t-35.5 -34h-31q7 26 38.5 46t36.5 41q3 14 -5 21.5t-24 7.5q-26 0 -51 -28l-16 15q31 40 78 40q27 0 40.5 -14.5t8.5 -41.5z
" />
    <glyph glyph-name="uni1EE7" unicode="u&#x309;" horiz-adv-x="390" 
d="M312 1l-39 -8q-5 34 -2 66q-58 -68 -142 -68q-122 0 -89 158l26 121q8 42 -3 68l39 8q11 -34 5 -67l-26 -123q-28 -131 64 -131q43 0 84 28q45 32 55 81l44 206h39l-55 -257q-8 -37 0 -82zM279.008 458.112q-6.30078 -27.9004 -35.5508 -47.7012
q-29.251 -19.8008 -31.9512 -30.6006h-27.9004q6.2998 23.4004 34.6504 41.4004q28.3506 18.001 32.8506 36.9014q2.7002 12.6006 -4.5 19.3506t-21.6006 6.75q-23.4004 0 -45.9014 -25.2002l-14.4004 13.5q27.9014 36.001 70.2021 36.001q24.3008 0 36.4512 -13.0498
q12.1504 -13.0508 7.65039 -37.3516z" />
    <glyph glyph-name="uni1EE8" unicode="&#x1af;&#x301;" horiz-adv-x="466" 
d="M411 201q-44 -210 -223 -210t-135 210l59 275h39l-59 -274q-20 -94 10 -136t93 -42q64 0 111 42t66 136l59 274h39l-10 -44q54 39 67 89h32q-24 -71 -105 -119zM306 526h-31l70 91l37 -10z" />
    <glyph glyph-name="uni1EE9" unicode="&#x1b0;&#x301;" horiz-adv-x="373" 
d="M312 83q-8 -37 0 -82l-39 -8q-5 34 -2 66q-58 -68 -142 -68q-122 0 -89 158l26 121q8 42 -3 68l39 8q11 -34 5 -67l-26 -123q-28 -131 64 -131q43 0 84 28q45 32 55 81l44 206h39l-9 -41q48 38 65 99h32q-24 -82 -103 -127zM229 390h-31l70 91l37 -10z" />
    <glyph glyph-name="uni1EEA" unicode="&#x1af;&#x300;" horiz-adv-x="466" 
d="M411 201q-44 -210 -223 -210t-135 210l59 275h39l-59 -274q-20 -94 10 -136t93 -42q64 0 111 42t66 136l59 274h39l-10 -44q54 39 67 89h32q-24 -71 -105 -119zM337 526h-31l-40 81l41 10z" />
    <glyph glyph-name="uni1EEB" unicode="&#x1b0;&#x300;" horiz-adv-x="373" 
d="M312 83q-8 -37 0 -82l-39 -8q-5 34 -2 66q-58 -68 -142 -68q-122 0 -89 158l26 121q8 42 -3 68l39 8q11 -34 5 -67l-26 -123q-28 -131 64 -131q43 0 84 28q45 32 55 81l44 206h39l-9 -41q48 38 65 99h32q-24 -82 -103 -127zM256 390h-31l-40 81l41 10z" />
    <glyph glyph-name="uni1EEC" unicode="&#x1af;&#x309;" horiz-adv-x="466" 
d="M411 201q-44 -210 -223 -210t-135 210l59 275h39l-59 -274q-20 -94 10 -136t93 -42q64 0 111 42t66 136l59 274h39l-10 -44q54 39 67 89h32q-24 -71 -105 -119zM385 607q-7 -31 -39.5 -53t-35.5 -34h-31q7 26 38.5 46t36.5 41q3 14 -5 21.5t-24 7.5q-26 0 -51 -28l-16 15
q31 40 78 40q27 0 40.5 -14.5t8.5 -41.5z" />
    <glyph glyph-name="uni1EED" unicode="&#x1b0;&#x309;" horiz-adv-x="373" 
d="M312 83q-8 -37 0 -82l-39 -8q-5 34 -2 66q-58 -68 -142 -68q-122 0 -89 158l26 121q8 42 -3 68l39 8q11 -34 5 -67l-26 -123q-28 -131 64 -131q43 0 84 28q45 32 55 81l44 206h39l-9 -41q48 38 65 99h32q-24 -82 -103 -127zM279.907 458.112
q-6.2998 -27.9004 -35.5508 -47.7012t-31.9502 -30.6006h-27.9014q6.2998 23.4004 34.6514 41.4004q28.3506 18.001 32.8506 36.9014q2.7002 12.6006 -4.5 19.3506t-21.6006 6.75q-23.4004 0 -45.9014 -25.2002l-14.4004 13.5q27.9004 36.001 70.2021 36.001
q24.3008 0 36.4512 -13.0498q12.1504 -13.0508 7.64941 -37.3516z" />
    <glyph glyph-name="uni1EEE" unicode="&#x1af;&#x303;" horiz-adv-x="466" 
d="M411 201q-44 -210 -223 -210t-135 210l59 275h39l-59 -274q-20 -94 10 -136t93 -42q64 0 111 42t66 136l59 274h39l-10 -44q54 39 67 89h32q-24 -71 -105 -119zM376 590h28q-15 -62 -61 -62q-13 0 -37.5 14t-33.5 14q-17 0 -26 -32h-26q16 64 58 64q13 0 36 -15t38 -15
q17 0 24 32z" />
    <glyph glyph-name="uni1EEF" unicode="&#x1b0;&#x303;" horiz-adv-x="373" 
d="M312 83q-8 -37 0 -82l-39 -8q-5 34 -2 66q-58 -68 -142 -68q-122 0 -89 158l26 121q8 42 -3 68l39 8q11 -34 5 -67l-26 -123q-28 -131 64 -131q43 0 84 28q45 32 55 81l44 206h39l-9 -41q48 38 65 99h32q-24 -82 -103 -127zM311 454h28q-15 -62 -61 -62q-13 0 -37.5 14
t-33.5 14q-17 0 -26 -32h-26q16 64 58 64q13 0 36 -15t38 -15q17 0 24 32z" />
    <glyph glyph-name="uni1EF0" unicode="&#x1af;&#x323;" horiz-adv-x="466" 
d="M411 201q-44 -210 -223 -210t-135 210l59 275h39l-59 -274q-20 -94 10 -136t93 -42q64 0 111 42t66 136l59 274h39l-10 -44q54 39 67 89h32q-24 -71 -105 -119zM202 -77q-2 -12 -12 -20.5t-23 -8.5q-12 0 -18.5 8.5t-4.5 20.5q2 10 12.5 19t22.5 9q13 0 19 -9t4 -19z" />
    <glyph glyph-name="uni1EF1" unicode="&#x1b0;&#x323;" horiz-adv-x="373" 
d="M312 83q-8 -37 0 -82l-39 -8q-5 34 -2 66q-58 -68 -142 -68q-122 0 -89 158l26 121q8 42 -3 68l39 8q11 -34 5 -67l-26 -123q-28 -131 64 -131q43 0 84 28q45 32 55 81l44 206h39l-9 -41q48 38 65 99h32q-24 -82 -103 -127zM155 -77q-2 -12 -12 -20.5t-23 -8.5
q-12 0 -18.5 8.5t-4.5 20.5q2 10 12.5 19t22.5 9q13 0 19 -9t4 -19z" />
    <glyph glyph-name="Ygrave" unicode="Y&#x300;" horiz-adv-x="366" 
d="M424 476l-221 -266l-44 -210h-38l44 209l-107 267h45l88 -233l188 233h45zM283 526h-31l-40 81l41 10z" />
    <glyph glyph-name="ygrave" unicode="y&#x300;" horiz-adv-x="337" 
d="M141 0q-88 -133 -190 -156l-2 31q88 19 157 136q0 3 -1 12l-73 317h42l66 -288l180 288h43zM233 390h-31l-40 81l41 10z" />
    <glyph glyph-name="uni1EF4" unicode="Y&#x323;" horiz-adv-x="366" 
d="M424 476l-221 -266l-44 -210h-38l44 209l-107 267h45l88 -233l188 233h45zM152 -77q-2 -12 -12 -20.5t-23 -8.5q-12 0 -18.5 8.5t-4.5 20.5q2 10 12.5 19t22.5 9q13 0 19 -9t4 -19z" />
    <glyph glyph-name="uni1EF5" unicode="y&#x323;" horiz-adv-x="337" 
d="M141 0q-88 -133 -190 -156l-2 31q88 19 157 136q0 3 -1 12l-73 317h42l66 -288l180 288h43zM206 -77q-2 -12 -12 -20.5t-23 -8.5q-12 0 -18.5 8.5t-4.5 20.5q2 10 12.5 19t22.5 9q13 0 19 -9t4 -19z" />
    <glyph glyph-name="uni1EF6" unicode="Y&#x309;" horiz-adv-x="366" 
d="M424 476l-221 -266l-44 -210h-38l44 209l-107 267h45l88 -233l188 233h45zM341 607q-7 -31 -39.5 -53t-35.5 -34h-31q7 26 38.5 46t36.5 41q3 14 -5 21.5t-24 7.5q-26 0 -51 -28l-16 15q31 40 78 40q27 0 40.5 -14.5t8.5 -41.5z" />
    <glyph glyph-name="uni1EF7" unicode="y&#x309;" horiz-adv-x="337" 
d="M141 0q-88 -133 -190 -156l-2 31q88 19 157 136q0 3 -1 12l-73 317h42l66 -288l180 288h43zM254.707 458.112q-6.30078 -27.9004 -35.5508 -47.7012q-29.251 -19.8008 -31.9512 -30.6006h-27.9004q6.2998 23.4004 34.6504 41.4004q28.3506 18.001 32.8516 36.9014
q2.69922 12.6006 -4.50098 19.3506t-21.6006 6.75q-23.4004 0 -45.9004 -25.2002l-14.4004 13.5q27.9004 36.001 70.2012 36.001q24.3008 0 36.4512 -13.0498q12.1504 -13.0508 7.65039 -37.3516z" />
    <glyph glyph-name="uni1EF8" unicode="Y&#x303;" horiz-adv-x="366" 
d="M424 476l-221 -266l-44 -210h-38l44 209l-107 267h45l88 -233l188 233h45zM321 590h28q-15 -62 -61 -62q-13 0 -37.5 14t-33.5 14q-17 0 -26 -32h-26q16 64 58 64q13 0 36 -15t38 -15q17 0 24 32z" />
    <glyph glyph-name="uni1EF9" unicode="y&#x303;" horiz-adv-x="337" 
d="M141 0q-88 -133 -190 -156l-2 31q88 19 157 136q0 3 -1 12l-73 317h42l66 -288l180 288h43zM279 454h28q-15 -62 -61 -62q-13 0 -37.5 14t-33.5 14q-17 0 -26 -32h-26q16 64 58 64q13 0 36 -15t38 -15q17 0 24 32z" />
    <glyph glyph-name="Itilde" unicode="I&#x303;" horiz-adv-x="147" 
d="M50 0h-39l101 476h39zM212 590h28q-15 -62 -61 -62q-13 0 -37.5 14t-33.5 14q-17 0 -26 -32h-26q16 64 58 64q13 0 36 -15t38 -15q17 0 24 32z" />
    <glyph glyph-name="itilde" unicode="i&#x303;" horiz-adv-x="143" 
d="M47 0h-38l72 340h38zM181 454h28q-15 -62 -61 -62q-13 0 -37.5 14t-33.5 14q-17 0 -26 -32h-26q16 64 58 64q13 0 36 -15t38 -15q17 0 24 32z" />
    <glyph glyph-name="Utilde" unicode="U&#x303;" horiz-adv-x="476" 
d="M416 201q-44 -210 -223 -210t-135 210l59 275h39l-59 -274q-20 -94 10 -136t93 -42q64 0 111 42t66 136l59 274h39zM376 590h28q-15 -62 -61 -62q-13 0 -37.5 14t-33.5 14q-17 0 -26 -32h-26q16 64 58 64q13 0 36 -15t38 -15q17 0 24 32z" />
    <glyph glyph-name="utilde" unicode="u&#x303;" horiz-adv-x="405" 
d="M312 1l-39 -8q-5 34 -2 66q-58 -68 -142 -68q-122 0 -89 158l26 121q8 42 -3 68l39 8q11 -34 5 -67l-26 -123q-28 -131 64 -131q43 0 84 28q45 32 55 81l44 206h39l-55 -257q-8 -37 0 -82zM311 454h28q-15 -62 -61 -62q-13 0 -37.5 14t-33.5 14q-17 0 -26 -32h-26
q16 64 58 64q13 0 36 -15t38 -15q17 0 24 32z" />
    <glyph glyph-name="uni0E4F.liga" unicode="&#xe4f;&#x22;" horiz-adv-x="443" 
d="M277 163q6 26 -8.5 45t-41.5 19t-49.5 -19t-28.5 -45q-6 -27 9 -45.5t42 -18.5t49 18.5t28 45.5zM312 163q-9 -41 -44 -70.5t-76 -29.5t-64 29.5t-14 70.5t44 70t76 29t64 -29t14 -70zM347 163q12 56 -18.5 95t-86.5 39t-103.5 -39t-59.5 -95q-12 -57 18 -96t87 -39
q56 0 103.5 39.5t59.5 95.5zM382 163q-15 -71 -75 -120t-130 -49q-71 0 -109.5 49t-23.5 120q15 70 74.5 119.5t130.5 49.5q69 0 108.5 -50t24.5 -119zM316 385h-27l25 161h47zM229 385h-27l25 161h47z" />
    <glyph glyph-name="uni0E24.liga" unicode="&#xe24;&#xe32;" horiz-adv-x="575" 
d="M244 -162q-12 -47 -48 -71l-28 18q34 26 43 66l87 410q11 51 -13 79t-73 28q-34 0 -69.5 -19.5t-53.5 -49.5q60 -5 70 -43q-24 -5 -46.5 -26.5t-28.5 -46.5l-13 -65q17 7 31 7q28 0 43.5 -19.5t9.5 -47.5t-29.5 -47t-51.5 -19t-43 19t-9 47l26 124q12 54 68 79
q-25 11 -76 11q20 55 72 91.5t109 36.5q64 0 95.5 -36t18.5 -99zM123 57q3 14 -5 24t-22 10t-25.5 -10t-14.5 -24t4.5 -23.5t21.5 -9.5t26 9.5t15 23.5zM441 -162q-12 -47 -48 -71l-28 18q34 26 43 66l95 448q6 30 -12 49.5t-57 19.5q-35 0 -60.5 -23.5t-33.5 -50.5h-37
q10 42 49 74t90 32q58 0 82.5 -28t14.5 -74z" />
    <glyph glyph-name="uni0E26.liga" unicode="&#xe26;&#xe32;" horiz-adv-x="621" 
d="M487 -162q-12 -47 -48 -71l-28 18q34 26 43 66l95 448q6 30 -12 49.5t-57 19.5q-35 0 -60.5 -23.5t-33.5 -50.5h-37q10 42 49 74t90 32q58 0 82.5 -28t14.5 -74zM291 -162q-12 -47 -48 -71l-28 18q34 26 43 66l87 409q10 49 -14 78.5t-72 29.5q-34 0 -70 -19.5t-54 -49.5
q52 -5 72 -44q-58 -18 -70 -73q-8 -39 -8 -80q0 -18 -5 -42q-6 -29 -29.5 -48.5t-50.5 -19.5t-41.5 19t-8.5 46q5 27 28 46.5t50 19.5q11 0 23 -5q3 46 8 70q10 46 56 72q-25 12 -51 12q-13 0 -19 -1q17 56 68.5 92.5t109.5 36.5q64 0 96 -36.5t19 -99.5zM92 57q3 14 -5 24
t-22 10t-25.5 -10t-14.5 -24t4.5 -23.5t21.5 -9.5t26 9.5t15 23.5z" />
    <glyph glyph-name=".notdef" horiz-adv-x="692" 
d="M642 0h-592v809h592v-809zM612 28v753h-532v-753h532z" />
    <glyph glyph-name="nonbreakingspace" unicode="&#xa0;" horiz-adv-x="216" 
 />
    <glyph glyph-name="exclam" unicode="!" horiz-adv-x="147" 
d="M70 120h-32l68 355h47zM69 28q-3 -14 -15.5 -24t-26.5 -10t-21.5 10t-5.5 24q3 14 15.5 24.5t26.5 10.5t22 -10.5t5 -24.5z" />
    <glyph glyph-name="quotedbl" unicode="&#x22;" horiz-adv-x="208" 
d="M189 338h-27l25 161h47zM102 338h-27l25 161h47z" />
    <glyph glyph-name="numbersign" unicode="#" horiz-adv-x="403" 
d="M349 149h-72l-50 -149h-35l50 149h-128l-49 -149h-35l49 149h-64l7 31h68l39 119h-68l7 32h72l49 144h33l-48 -144h129l47 144h35l-48 -144h65l-7 -32h-69l-39 -119h69zM253 180l39 119h-129l-38 -119h128z" />
    <glyph glyph-name="dollar" unicode="$" horiz-adv-x="361" 
d="M293 133q-9 -40 -43 -72q-38 -35 -94 -45l-16 -74h-35l16 74q-64 0 -102 35l25 31q33 -34 93 -34q45 0 77.5 23.5t39.5 59.5q13 58 -67 95q-110 50 -94 124q9 43 44.5 73t85.5 37l16 76h34l-16 -76q49 -3 86 -29l-25 -32q-28 29 -84 29q-44 0 -73 -25q-24 -20 -30 -48
q-6 -30 10.5 -49.5t63.5 -42.5q54 -26 74 -51q24 -32 14 -79z" />
    <glyph glyph-name="percent" unicode="%" horiz-adv-x="585" 
d="M511 476l-393 -485h-34l393 485h34zM275 334q-30 -142 -137 -142t-77 142q31 142 138 142t76 -142zM239 334q24 110 -47 110t-95 -110q-23 -110 48 -110t94 110zM536 139q-30 -142 -137 -142t-77 142t137 142t77 -142zM500 139q23 110 -48 110t-94 -110t48 -110t94 110z
" />
    <glyph glyph-name="ampersand" unicode="&#x26;" horiz-adv-x="423" 
d="M424 256q-51 -127 -104 -176q29 -38 67 -80h-50q-16 18 -45 53q-87 -62 -174 -62q-60 0 -93.5 39.5t-21.5 97.5q20 95 132 145q-31 57 -22 102q10 48 49.5 83t93.5 35q44 0 66.5 -27.5t12.5 -70.5q-17 -80 -150 -135q44 -64 116 -159q44 46 86 155h37zM300 391
q6 29 -6 49q-14 23 -48 23q-35 0 -61.5 -25t-33.5 -59q-8 -39 22 -94q115 50 127 106zM274 77q-72 91 -125 171q-92 -44 -107 -115q-11 -49 15.5 -79.5t75.5 -30.5q75 0 141 54z" />
    <glyph glyph-name="quotesingle" unicode="'" horiz-adv-x="120" 
d="M102 338h-27l25 161h46z" />
    <glyph glyph-name="parenleft" unicode="(" horiz-adv-x="190" 
d="M113 -58h-38q-84 121 -49 292q35 162 174 298h40q-140 -128 -176 -298q-34 -159 49 -292z" />
    <glyph glyph-name="parenright" unicode=")" horiz-adv-x="190" 
d="M176 237q-35 -166 -174 -295h-37q140 139 173 295q33 158 -48 295h38q84 -125 48 -295z" />
    <glyph glyph-name="asterisk" unicode="*" horiz-adv-x="285" 
d="M299 356l-101 9l46 -86l-38 -21l-32 99l-73 -99l-28 21l82 86l-105 -9l8 38l102 -7l-46 85l43 22l28 -92l67 92l33 -22l-82 -85l104 7z" />
    <glyph glyph-name="plus" unicode="+" horiz-adv-x="411" 
d="M365 165h-150l-35 -165h-35l35 165h-150l7 33h150l33 159h35l-33 -159h150z" />
    <glyph glyph-name="comma" unicode="," horiz-adv-x="162" 
d="M85 27q-13 -54 -53 -95q-27 -29 -54 -41l-10 15q58 35 75 87q-16 0 -25 11t-6 26t16.5 26.5t28.5 11.5q16 0 24 -12t4 -29z" />
    <glyph glyph-name="hyphen" unicode="-" horiz-adv-x="216" 
d="M179 165h-174l14 33h174z" />
    <glyph glyph-name="hyphen" unicode="&#xad;" horiz-adv-x="216" 
d="M179 165h-174l14 33h174z" />
    <glyph glyph-name="period" unicode="." horiz-adv-x="162" 
d="M77 28q-3 -14 -15.5 -24t-26.5 -10t-22 10t-5 24t15.5 24.5t26.5 10.5t22 -10.5t5 -24.5z" />
    <glyph glyph-name="slash" unicode="/" horiz-adv-x="270" 
d="M339 493l-368 -522h-38l365 522h41z" />
    <glyph glyph-name="zero" unicode="0" horiz-adv-x="362" 
d="M335 227q-18 -83 -64 -151q-60 -87 -136 -87q-77 0 -99 87q-18 67 0 151q21 101 71 171q58 81 132 81t98 -81q19 -70 -2 -171zM295 228q18 87 6 147q-15 70 -69 70q-55 0 -100 -70q-37 -59 -56 -147q-15 -72 -4 -130q14 -75 70 -75q55 0 101 75q37 58 52 130z" />
    <glyph glyph-name="one" unicode="1" horiz-adv-x="362" 
d="M244 0h-190l7 36h75l81 381l-89 -65l-16 25l136 101q22 0 14 -38l-86 -404h75z" />
    <glyph glyph-name="two" unicode="2" horiz-adv-x="362" 
d="M300 39l-16 -39h-301q10 25 26 57q52 44 114.5 94t143.5 127q41 43 49 82t-12.5 60t-60.5 21q-90 0 -121 -90l-34 10q19 58 65 89q42 28 99 28q56 0 85 -34.5t18 -86.5q-16 -76 -160 -191q-105 -86 -150 -127h255z" />
    <glyph glyph-name="three" unicode="3" horiz-adv-x="362" 
d="M319 161q-16 -76 -78 -123t-145 -49q-66 -2 -99 37l23 31q31 -28 91 -28q58 0 107 39t60 91q9 39 -9.5 65t-55.5 26q-43 0 -72 -23l-12 32q44 29 88 59q67 48 73 75q10 49 -58 49q-75 0 -127 -75l-25 15q25 44 69.5 70t93.5 26q42 0 67.5 -22.5t16.5 -61.5
q-10 -46 -105 -108h6q53 0 77.5 -35.5t13.5 -89.5z" />
    <glyph glyph-name="four" unicode="4" horiz-adv-x="362" 
d="M222 148l61 289q-76 -34 -139 -119q-60 -81 -81 -170h159zM320 111h-66l-23 -111h-40l23 111h-202q34 149 121.5 252t200.5 125l-72 -340h71z" />
    <glyph glyph-name="five" unicode="5" horiz-adv-x="362" 
d="M309 164q-16 -77 -78 -124.5t-144 -47.5q-69 0 -99 37l22 31q12 -9 27 -17q25 -13 66 -13q54 0 103 35t62 98q12 54 -19 81q-25 24 -73 24q-42 0 -74 -33l-21 -2l66 242h213l-15 -38h-168l-39 -141q29 10 59 10q58 0 91 -36q35 -40 21 -106z" />
    <glyph glyph-name="six" unicode="6" horiz-adv-x="362" 
d="M309 145q-13 -65 -59 -109t-109 -44q-71 0 -101 54q-26 48 -10 121q24 115 114.5 205.5t204.5 111.5l-3 -29q-71 -19 -137 -71q-74 -58 -114 -138q7 15 36 32q36 20 78 20q59 0 86.5 -45t13.5 -108zM269 145q11 50 -8.5 85t-66.5 35q-43 0 -80.5 -35t-48.5 -85
q-10 -49 12.5 -84t65.5 -35q48 0 82 35t44 84z" />
    <glyph glyph-name="seven" unicode="7" horiz-adv-x="362" 
d="M130 0h-42q32 151 121 289q21 32 67 89.5t47 58.5h-241l23 38h281l-16 -40q-86 -88 -148 -190.5t-92 -244.5z" />
    <glyph glyph-name="eight" unicode="8" horiz-adv-x="362" 
d="M271 125q8 39 -11.5 74.5t-72.5 38.5q-54 -3 -88.5 -38.5t-42.5 -74.5q-9 -45 15.5 -71.5t71.5 -26.5q46 0 82.5 26.5t45.5 71.5zM306 361q8 35 -12.5 58t-62.5 23q-43 0 -72.5 -23t-37.5 -58q-13 -62 74 -85q98 23 111 85zM312 128q-14 -64 -61.5 -100t-115.5 -36
q-67 0 -99.5 36t-18.5 100q10 49 46 84.5t82 44.5q-35 11 -53 39.5t-11 61.5q11 53 55 87t103 34q58 0 88 -34t19 -87q-7 -33 -38 -61.5t-70 -39.5q42 -9 63 -44.5t11 -84.5z" />
    <glyph glyph-name="nine" unicode="9" horiz-adv-x="362" 
d="M343 305q-24 -115 -114.5 -205.5t-204.5 -111.5l3 29q71 19 137 71q75 58 115 138q-8 -15 -36 -32q-37 -20 -79 -20q-59 0 -86 45t-14 108q14 65 60 109t109 44q71 0 100 -54q26 -48 10 -121zM308 327q10 49 -12.5 84t-65.5 35q-48 0 -82 -35t-44 -84q-11 -50 8.5 -85
t66.5 -35q43 0 80.5 35t48.5 85z" />
    <glyph glyph-name="colon" unicode=":" horiz-adv-x="162" 
d="M77 28q-3 -14 -15.5 -24t-26.5 -10t-22 10t-5 24t15.5 24.5t26.5 10.5t22 -10.5t5 -24.5zM132 283q-3 -14 -16 -24t-27 -10t-21.5 10t-4.5 24t15 24.5t26 10.5t22.5 -10.5t5.5 -24.5z" />
    <glyph glyph-name="semicolon" unicode=";" horiz-adv-x="162" 
d="M85 27q-13 -54 -53 -95q-27 -29 -54 -41l-10 15q58 35 75 87q-16 0 -25 11t-6 26t16.5 26.5t28.5 11.5q16 0 24 -12t4 -29zM132 283q-3 -14 -16 -24t-27 -10t-21.5 10t-4.5 24t15 24.5t26 10.5t22.5 -10.5t5.5 -24.5z" />
    <glyph glyph-name="less" unicode="&#x3c;" horiz-adv-x="411" 
d="M330 36l-8 -38l-285 176l6 27l360 176l-8 -37l-315 -153z" />
    <glyph glyph-name="equal" unicode="=" horiz-adv-x="411" 
d="M369 265l-7 -33h-301l7 33h301zM341 135l-7 -33h-301l7 33h301z" />
    <glyph glyph-name="greater" unicode="&#x3e;" horiz-adv-x="411" 
d="M365 201l-6 -27l-359 -176l8 38l314 152l-249 152l8 37z" />
    <glyph glyph-name="question" unicode="?" horiz-adv-x="283" 
d="M121 123h-34q-2 15 2 35q11 53 78.5 114t76.5 104q16 72 -66 72q-47 0 -86 -26l-8 30q54 31 108 31q57 0 80 -33q21 -29 12 -72q-11 -53 -89 -120q-60 -52 -71 -103q-3 -18 -3 -32zM116 28q-3 -14 -15.5 -24t-26.5 -10t-22 10t-5 24t15.5 24.5t26.5 10.5t22 -10.5
t5 -24.5z" />
    <glyph glyph-name="at" unicode="@" horiz-adv-x="536" 
d="M504 176q-15 -68 -67 -116t-102 -51l-31 -2v45q-51 -51 -117 -51q-12 0 -19 1q-31 5 -48.5 28t-11.5 53q24 112 224 112l1 5q18 85 -63 85q-44 0 -80 -24l-6 25q45 29 94 29q114 0 87 -127l-22 -107q-5 -22 -5 -41q39 2 79.5 41t51.5 92q18 83 -22.5 137.5t-129.5 54.5
q-94 0 -169 -62q-80 -66 -102 -170q-19 -86 24 -142.5t124 -56.5q69 0 124 30l8 -29q-67 -32 -141 -32q-94 0 -146 64t-32 163q23 109 109 184q91 80 212 80q100 0 148 -62t28 -156zM313 105l13 61q-164 -2 -180 -77q-12 -60 49 -60q72 0 113 63q3 4 5 13z" />
    <glyph glyph-name="A" unicode="A" horiz-adv-x="400" 
d="M357 0h-43l-23 153h-205l-86 -153h-43l282 483h40zM286 186l-36 254l-145 -254h181z" />
    <glyph glyph-name="B" unicode="B" horiz-adv-x="378" 
d="M331 133q-30 -139 -231 -139q-44 0 -89 10l99 465q53 13 103 13q173 0 147 -120q-7 -36 -35 -65.5t-67 -42.5q35 -9 59 -40.5t14 -80.5zM321 361q19 88 -115 88q-31 0 -63 -7l-37 -174h81q53 0 91 28q35 26 43 65zM293 132q11 53 -25 78.5t-99 25.5h-69l-44 -204
q26 -6 59 -6q64 0 110 23q56 28 68 83z" />
    <glyph glyph-name="C" unicode="C" horiz-adv-x="406" 
d="M334 50l5 -32q-58 -25 -135 -25q-97 0 -146.5 69.5t-27.5 176.5q23 107 102 175.5t176 68.5q77 0 125 -25l-19 -32q-49 23 -111 23q-77 0 -143 -57q-70 -60 -90 -154t24 -154q42 -57 119 -57q62 0 121 23z" />
    <glyph glyph-name="D" unicode="D" horiz-adv-x="431" 
d="M411 248q-53 -252 -279 -252q-30 0 -120 9l98 464q95 12 145 12q91 0 135 -61q44 -64 21 -172zM372 248q20 95 -18 149q-35 50 -109 50q-31 0 -102 -8l-86 -403q49 -6 94 -6q81 0 140 57.5t81 160.5z" />
    <glyph glyph-name="E" unicode="E" horiz-adv-x="351" 
d="M270 0h-259l101 476h259l-7 -33h-220l-38 -175h196l-7 -33h-196l-42 -202h220z" />
    <glyph glyph-name="F" unicode="F" horiz-adv-x="351" 
d="M313 229h-215l-48 -229h-39l101 476h269l-7 -33h-230l-39 -181h215z" />
    <glyph glyph-name="G" unicode="G" horiz-adv-x="425" 
d="M390 238l-48 -228q-7 6 -20 6l-61.5 -10.5t-81.5 -10.5q-91 0 -131.5 66.5t-17.5 177.5q23 106 94 172q74 70 176 70q73 0 123 -24l-19 -32q-55 23 -113 23q-75 0 -138 -59t-83 -151q-21 -98 10.5 -154.5t111.5 -56.5q63 0 121 25l32 154h-121l7 32h159z" />
    <glyph glyph-name="H" unicode="H" horiz-adv-x="441" 
d="M344 0h-39l50 237h-255l-50 -237h-39l101 476h39l-44 -206h255l44 206h39z" />
    <glyph glyph-name="I" unicode="I" horiz-adv-x="147" 
d="M50 0h-39l101 476h39z" />
    <glyph glyph-name="J" unicode="J" horiz-adv-x="264" 
d="M200 156q-35 -165 -175 -165q-38 0 -67 15l16 31q21 -12 58 -12q52 0 83 30.5t48 110.5l66 310h39z" />
    <glyph glyph-name="K" unicode="K" horiz-adv-x="376" 
d="M348 9l-38 -14l-157 253l-62 -51l-41 -197h-39l101 476h39l-49 -229l287 235l37 -11l-240 -198z" />
    <glyph glyph-name="L" unicode="L" horiz-adv-x="353" 
d="M284 0h-273l101 476h39l-94 -443h234z" />
    <glyph glyph-name="M" unicode="M" horiz-adv-x="548" 
d="M465 0h-37l59 420l-243 -420h-26l-65 420l-119 -420h-37l134 476h46l64 -427l246 427h46z" />
    <glyph glyph-name="N" unicode="N" horiz-adv-x="441" 
d="M344 0h-41l-163 421l-89 -421h-40l101 476h45l161 -415l89 415h38z" />
    <glyph glyph-name="O" unicode="O" horiz-adv-x="486" 
d="M471 237q-23 -107 -99.5 -177t-174.5 -70t-144.5 70t-23.5 177t99 177t174 70t145 -70t24 -177zM432 237q19 88 -19 150.5t-118 62.5t-144 -62.5t-83 -150.5t19 -150.5t118 -62.5t144 62.5t83 150.5z" />
    <glyph glyph-name="P" unicode="P" horiz-adv-x="378" 
d="M375 344q-16 -75 -85 -116q-59 -35 -137 -34q-32 0 -61 6l-42 -200h-39l100 471q62 10 117 10q72 0 114 -33q47 -38 33 -104zM337 341q23 106 -117 106q-50 0 -77 -5l-44 -208q26 -7 69 -7q146 8 169 114z" />
    <glyph glyph-name="Q" unicode="Q" horiz-adv-x="487" 
d="M471 237q-18 -86 -74 -151q-59 -68 -139 -87q54 -25 130 -29l-22 -37q-94 23 -169 57q-98 0 -144.5 70t-23.5 177t99 177t174 70t145 -70t24 -177zM432 237q19 88 -19 150.5t-118 62.5t-144 -62.5t-83 -150.5t19 -150.5t118 -62.5t144 62.5t83 150.5z" />
    <glyph glyph-name="R" unicode="R" horiz-adv-x="379" 
d="M315 0h-38q19 217 -89 217h-92l-46 -217h-39l99 470q59 11 120 11q77 -1 115 -30q45 -34 32 -98q-19 -89 -119 -123q47 -29 57 -108q5 -41 0 -122zM338 348q22 99 -115 99q-55 0 -80 -7l-41 -192h89q59 0 98 26.5t49 73.5z" />
    <glyph glyph-name="S" unicode="S" horiz-adv-x="352" 
d="M303 124q-12 -54 -58 -90q-53 -43 -132 -43q-78 0 -123 36l22 34q42 -37 112 -37q56 0 93.5 26.5t46.5 70.5q9 40 -10.5 64.5t-72.5 42.5q-124 43 -105 134q12 53 60.5 88t114.5 35q67 0 103 -25q-12 -17 -23 -31q-38 23 -88 23q-56 0 -93 -29q-29 -24 -35 -56
q-15 -66 84 -102q64 -24 88 -52q28 -33 16 -89z" />
    <glyph glyph-name="T" unicode="T" horiz-adv-x="379" 
d="M435 443h-175l-94 -443h-38l94 443h-176l7 33h389z" />
    <glyph glyph-name="U" unicode="U" horiz-adv-x="466" 
d="M411 201q-44 -210 -223 -210t-135 210l59 275h39l-59 -274q-20 -94 10 -136t93 -42q64 0 111 42t66 136l59 274h39z" />
    <glyph glyph-name="V" unicode="V" horiz-adv-x="390" 
d="M448 476l-275 -476h-42l-73 476h44l59 -431l243 431h44z" />
    <glyph glyph-name="W" unicode="W" horiz-adv-x="588" 
d="M646 476l-245 -476h-42l-17 432l-199 -432h-42l-43 476h44l29 -431l199 431h44l15 -431l213 431h44z" />
    <glyph glyph-name="X" unicode="X" horiz-adv-x="418" 
d="M358 0h-46l-101 215l-191 -215h-46l220 244l-112 232h47l93 -208l183 208h47l-212 -232z" />
    <glyph glyph-name="Y" unicode="Y" horiz-adv-x="366" 
d="M424 476l-221 -266l-44 -210h-38l44 209l-107 267h45l88 -233l188 233h45z" />
    <glyph glyph-name="Z" unicode="Z" horiz-adv-x="424" 
d="M372 33l-15 -33h-378l6 26l411 417h-303l13 33h347l-6 -27l-410 -416h335z" />
    <glyph glyph-name="bracketleft" unicode="[" horiz-adv-x="196" 
d="M131 -48l-6 -30h-132l123 584h133l-6 -30h-98l-112 -524h98z" />
    <glyph glyph-name="backslash" unicode="\" horiz-adv-x="262" 
d="M230 -28h-40l-140 511h39z" />
    <glyph glyph-name="bracketright" unicode="]" horiz-adv-x="196" 
d="M85 -78h-133l6 30h97l112 524h-98l6 30h134z" />
    <glyph glyph-name="asciicircum" unicode="^" horiz-adv-x="412" 
d="M282 480l75 -321h-37l-65 283l-185 -283h-37l213 321h36z" />
    <glyph glyph-name="underscore" unicode="_" horiz-adv-x="352" 
d="M276 -152l-6 -31h-351l6 31h351z" />
    <glyph glyph-name="grave" unicode="`" horiz-adv-x="204" 
d="M187 390h-31l-40 81l41 10z" />
    <glyph glyph-name="a" unicode="a" horiz-adv-x="398" 
d="M320 69q-9 -40 3 -68l-39 -8q-11 36 -5 69q-55 -72 -141 -72q-58 0 -90 33.5t-32 89.5q0 88 57 158q60 75 146 75q89 1 151 -50zM296 143l31 136q-51 35 -103 35q-73 -1 -124 -65q-46 -60 -46 -131q0 -44 25.5 -70.5t71.5 -26.5q51 0 92.5 36.5t52.5 85.5z" />
    <glyph glyph-name="b" unicode="b" horiz-adv-x="401" 
d="M366 174q-17 -82 -70.5 -132.5t-126.5 -50.5q-68 0 -101.5 33t-33.5 85q0 17 4 33l78 363h39l-49 -230q59 72 144 72q71 0 101.5 -49t14.5 -124zM328 173q14 63 -9.5 103t-81.5 40q-48 0 -90 -33q-47 -35 -58 -89l-14 -65q-10 -48 18 -76.5t78 -28.5q126 0 157 149z" />
    <glyph glyph-name="c" unicode="c" horiz-adv-x="331" 
d="M264 47l8 -32q-48 -24 -110 -24q-84 0 -122 48.5t-21 129.5q18 81 76 129.5t142 48.5q62 0 100 -24l-21 -32q-32 24 -88 24q-61 0 -108.5 -39t-62.5 -107q-14 -68 17 -107t92 -39q56 0 98 24z" />
    <glyph glyph-name="d" unicode="d" horiz-adv-x="401" 
d="M323 83q-8 -37 0 -82l-39 -8q-5 34 -2 66q-60 -68 -140 -68q-73 0 -105.5 50.5t-15.5 132.5q16 75 67.5 124t122.5 49q85 0 114 -72l49 230h39zM295 136l13 57q11 55 -20 90q-28 33 -76 33q-58 0 -98.5 -40t-54.5 -103q-31 -149 95 -149q50 0 90.5 32t50.5 80z" />
    <glyph glyph-name="e" unicode="e" horiz-adv-x="374" 
d="M344 253q0 -119 -203 -119q-37 0 -87 4q-1 -8 -1 -15q0 -98 114 -98q58 0 124 23l-4 -33q-63 -24 -131 -24q-65 0 -104 35t-39 94q0 95 67 163q64 64 147 64q117 0 117 -94zM309 254q0 62 -82 62q-51 0 -101 -41q-53 -44 -70 -105q41 -3 73 -3q180 0 180 87z" />
    <glyph glyph-name="f" unicode="f" horiz-adv-x="206" 
d="M221 309h-98l-64 -305q-35 -160 -156 -160q-38 0 -53 16l17 28q19 -11 46 -11q80 0 107 127l64 305h-57l7 31h58l3 13q34 160 155 160q38 0 53 -16l-17 -28q-19 11 -46 11q-80 0 -107 -127l-3 -13h98z" />
    <glyph glyph-name="g" unicode="g" horiz-adv-x="311" 
d="M280 228q-12 -56 -53.5 -89t-92.5 -33q-31 0 -51 11q-9 -15 -12 -29q-5 -26 71 -49q90 -27 75 -98q-9 -43 -46 -70.5t-97 -27.5q-53 0 -90 27l20 32q37 -25 80 -25q37 0 65 17t33 44q11 48 -63 74q-45 15 -60 27q-27 19 -21 49q4 18 20 48q-28 40 -19 85q12 54 53 87
t87 33h133l-7 -32l-48 5q33 -40 23 -86zM245 223q7 33 -9 58q-17 30 -58 30q-40 0 -68 -26.5t-35 -62.5q-9 -40 13 -64q20 -22 52 -22q36 0 66 23t39 64z" />
    <glyph glyph-name="h" unicode="h" horiz-adv-x="390" 
d="M312 1l-39 -8q-11 34 -4 67l28 133q25 122 -77 122q-41 0 -80.5 -34.5t-48.5 -74.5l-43 -206h-39l107 505h39l-48 -226q55 68 128 68q133 0 101 -154l-27 -124q-8 -42 3 -68z" />
    <glyph glyph-name="i" unicode="i" horiz-adv-x="143" 
d="M48 0h-39l72 340h39zM153 443q-3 -14 -14 -22.5t-25 -8.5t-20.5 8.5t-3.5 22.5t13 23t24 9t21.5 -9t4.5 -23z" />
    <glyph glyph-name="j" unicode="j" horiz-adv-x="155" 
d="M61 7q-34 -152 -173 -155l3 31q70 6 101 48q20 29 32 87l69 322h39zM165 443q-3 -14 -14 -22.5t-25 -8.5t-20.5 8.5t-3.5 22.5t13 23t24 9t21.5 -9t4.5 -23z" />
    <glyph glyph-name="k" unicode="k" horiz-adv-x="316" 
d="M284 1l-42 -11l-122 187l-42 -34l-30 -143h-39l107 505h39l-68 -318l203 158l38 -8l-175 -138z" />
    <glyph glyph-name="l" unicode="l" horiz-adv-x="200" 
d="M144 27l-11 -34q-125 6 -88 178l71 334h39l-68 -319q-15 -73 -9 -106q8 -52 66 -53z" />
    <glyph glyph-name="m" unicode="m" horiz-adv-x="601" 
d="M520 69q-8 -42 3 -68l-39 -8q-11 34 -4 67l26 128q13 58 -3.5 92.5t-61.5 34.5q-39 0 -75 -30.5t-44 -68.5l-45 -216h-39l43 206q23 109 -63 109q-40 0 -79 -34.5t-48 -74.5l-43 -206h-39l57 270q8 42 -3 68l39 8q11 -34 4 -67q53 68 128 68q69 0 87 -76q56 76 138 76
q56 0 79 -42.5t8 -115.5z" />
    <glyph glyph-name="n" unicode="n" horiz-adv-x="390" 
d="M310 69q-8 -42 3 -68l-39 -8q-11 34 -4 67l27 133q25 122 -77 122q-41 0 -80.5 -34.5t-48.5 -74.5l-43 -206h-39l57 270q8 42 -3 68l39 8q11 -34 4 -67q53 68 129 68q133 0 101 -154z" />
    <glyph glyph-name="o" unicode="o" horiz-adv-x="398" 
d="M362 169q-16 -75 -74 -127t-135 -52t-113 52t-20 127t74 126.5t135 51.5t113 -51.5t20 -126.5zM324 169q14 62 -15 103.5t-87 41.5t-104 -41.5t-60 -103.5q-13 -62 15.5 -104t86.5 -42t104.5 42t59.5 104z" />
    <glyph glyph-name="p" unicode="p" horiz-adv-x="401" 
d="M328 165q14 70 -10 109.5t-86 39.5q-50 0 -90.5 -32t-51.5 -80l-12 -57q-11 -55 20 -90q28 -33 76 -33q58 0 101 41q39 39 53 102zM364 164q-16 -75 -66 -122q-52 -51 -123 -51q-85 0 -114 72l-49 -230h-38l92 436q8 42 -3 68l39 8q11 -34 1 -67q61 69 141 69
q73 0 105.5 -50.5t14.5 -132.5z" />
    <glyph glyph-name="q" unicode="q" horiz-adv-x="401" 
d="M373 296l-101 -464h-39l49 230q-58 -72 -144 -72q-58 0 -90 33.5t-32 89.5q0 88 57 158q60 75 146 75q92 1 154 -50zM299 143l31 136q-51 35 -106 35q-73 -1 -124 -65q-46 -60 -46 -131q0 -44 25.5 -70.5t71.5 -26.5q51 0 94 36.5t54 85.5z" />
    <glyph glyph-name="r" unicode="r" horiz-adv-x="217" 
d="M231 312q-3 1 -12 1q-77 0 -122 -96q-6 -11 -11 -34l-38 -183h-39l56 270q8 42 -3 68l39 8q11 -34 -1 -74q48 75 119 75q9 0 19 -2z" />
    <glyph glyph-name="s" unicode="s" horiz-adv-x="282" 
d="M224 90q-10 -43 -48 -71t-96 -28q-50 0 -90 27l21 32q43 -26 79 -26q84 0 97 63q10 49 -63 73q-86 28 -72 92q8 39 43.5 67t88.5 28t79 -23l-22 -32q-25 24 -70 24q-32 0 -54 -17t-27 -42q-8 -40 64 -67q84 -31 70 -100z" />
    <glyph glyph-name="t" unicode="t" horiz-adv-x="238" 
d="M173 31l-2 -31q-22 -9 -55 -9q-44 0 -60 34q-14 30 -4 75l44 209h-68l7 31h68l21 101l43 18l-25 -119h109l-7 -31h-109l-44 -208q-16 -76 35 -76q31 0 47 6z" />
    <glyph glyph-name="u" unicode="u" horiz-adv-x="390" 
d="M312 1l-39 -8q-5 34 -2 66q-58 -68 -142 -68q-122 0 -89 158l26 121q8 42 -3 68l39 8q11 -34 5 -67l-26 -123q-28 -131 64 -131q43 0 84 28q45 32 55 81l44 206h39l-55 -257q-8 -37 0 -82z" />
    <glyph glyph-name="v" unicode="v" horiz-adv-x="341" 
d="M367 340l-225 -340h-35l-75 340h40l62 -298l193 298h40z" />
    <glyph glyph-name="w" unicode="w" horiz-adv-x="507" 
d="M536 340l-194 -340h-34l-35 300l-166 -300h-36l-39 340h41l27 -294l165 294h37l33 -294l162 294h39z" />
    <glyph glyph-name="x" unicode="x" horiz-adv-x="318" 
d="M275 0h-46l-83 147l-144 -147h-45l174 173l-93 167h44l78 -138l137 138h43l-166 -166z" />
    <glyph glyph-name="y" unicode="y" horiz-adv-x="337" 
d="M141 0q-88 -133 -190 -156l-2 31q88 19 157 136q0 3 -1 12l-73 317h42l66 -288l180 288h43z" />
    <glyph glyph-name="z" unicode="z" horiz-adv-x="321" 
d="M258 0h-286l6 24l299 284h-228l13 32h271l-7 -27l-299 -281h245z" />
    <glyph glyph-name="braceleft" unicode="{" horiz-adv-x="208" 
d="M127 -47l-7 -30h-11q-108 0 -88 95q4 19 19.5 58.5t19.5 59.5q11 50 -51 52l7 30q62 2 73 52q4 20 5.5 59.5t5.5 58.5q20 95 128 95h11l-6 -30h-15q-69 0 -84 -69q-7 -101 -9 -111q-11 -51 -55 -70q36 -19 25 -70q-2 -10 -38 -111q-14 -69 55 -69h15z" />
    <glyph glyph-name="bar" unicode="|" horiz-adv-x="153" 
d="M162 528l-149 -702h-32l148 702h33z" />
    <glyph glyph-name="braceright" unicode="}" horiz-adv-x="208" 
d="M-31 -77l7 30h15q68 0 82 69q8 101 10 111q11 51 55 70q-36 19 -25 70q2 10 37 111q15 69 -54 69h-15l6 30h11q108 0 88 -95q-4 -19 -19.5 -58.5t-19.5 -59.5q-11 -50 51 -52l-7 -30q-62 -2 -73 -52q-4 -20 -5.5 -59.5t-5.5 -58.5q-20 -95 -127 -95h-11z" />
    <glyph glyph-name="asciitilde" unicode="~" horiz-adv-x="416" 
d="M398 249l-1 -6q-10 -46 -40 -71q-25 -21 -57 -21q-39 0 -98 32.5t-94 32.5q-47 0 -62 -65h-31l1 8q9 42 37.5 66t61.5 24q38 0 98 -31.5t96 -31.5q43 0 58 63h31z" />
    <glyph glyph-name="uni0E33.alt1" horiz-adv-x="316" 
d="M-78 538q-7 -32 -33.5 -54t-58.5 -22t-50 22t-11 54t34 54.5t59 22.5t49.5 -22.5t10.5 -54.5zM-111 538q4 18 -6.5 31t-27.5 13q-18 0 -33.5 -13t-19.5 -31t6.5 -30.5t28.5 -12.5q17 0 32.5 12.5t19.5 30.5zM224 34q-12 -47 -48 -71l-28 18q34 26 43 66l53 252
q6 30 -12 49.5t-57 19.5q-35 0 -61 -23.5t-34 -50.5h-37q10 42 49.5 74t90.5 32q58 0 82.5 -28t14.5 -74z" />
    <glyph glyph-name=".null" 
 />
    <glyph glyph-name="nonmarkingreturn" horiz-adv-x="216" 
 />
    <glyph glyph-name="uni0E4E.alt1" 
d="M-23 664l-15 -25q-16 5 -36 5q-46 0 -52 -31q-7 -33 42 -39l-14 -23q-12 4 -24 4q-28 0 -48 -12.5t-23 -27.5q-6 -27 39 -27q13 0 34 8l-4 -25q-21 -8 -48 -8q-25 0 -40 14.5t-10 38.5q5 25 29 42t49 17q-18 13 -12 38q12 58 89 58q27 0 44 -7z" />
    <glyph glyph-name="exclamdown" unicode="&#xa1;" horiz-adv-x="151" 
d="M29 -140h-54l83 348h35zM133 304q-3 -15 -16.5 -26t-28.5 -11t-23.5 11t-5.5 26t16.5 26t28.5 11t23.5 -11t5.5 -26z" />
    <glyph glyph-name="cent" unicode="&#xa2;" horiz-adv-x="411" 
d="M345 48q-54 -26 -137 -26h-5l-17 -81h-33l18 83q-74 11 -111 61q-42 55 -21 153q18 83 73 138q61 60 149 75l20 91h33l-19 -87q7 1 21 1q60 0 108 -19l-15 -36q-40 23 -97 23q-92 0 -153.5 -48.5t-80.5 -139.5q-19 -86 19 -131q40 -48 131 -48q63 0 111 20z" />
    <glyph glyph-name="sterling" unicode="&#xa3;" horiz-adv-x="411" 
d="M310 0h-296l5 25q96 52 113 133q5 23 7 58h-79l7 31h76q2 48 9 81q28 133 156 133q41 0 79 -20l-18 -29q-37 16 -70 16q-91 0 -112 -101q-8 -37 -8 -80h113l-7 -31h-109q0 -23 -6 -51q-18 -84 -82 -132h229z" />
    <glyph glyph-name="currency" unicode="&#xa4;" horiz-adv-x="411" 
d="M391 225q-14 -66 -61 -111l31 -41l-35 -30l-33 42q-55 -42 -123 -42q-65 0 -104 42l-49 -42l-22 30l47 41q-29 48 -16 111q14 64 64 114l-31 40l36 31l31 -42q60 41 121 41q64 0 106 -41l52 42l21 -31l-48 -40q28 -44 13 -114zM351 225q13 60 -19 104.5t-92 44.5
q-58 0 -110 -44t-65 -105t20.5 -103.5t91.5 -42.5q60 0 111 43.5t63 102.5z" />
    <glyph glyph-name="yen" unicode="&#xa5;" horiz-adv-x="411" 
d="M322 95h-121l-16 -76h-37l16 76h-120l6 29h120l12 57h-120l6 29h120l-100 249h46l80 -211l170 211h47l-206 -248h121l-6 -30h-121l-12 -57h121z" />
    <glyph glyph-name="brokenbar" unicode="&#xa6;" horiz-adv-x="153" 
d="M98 227h-33l52 248h33zM23 -123h-32l52 249h33z" />
    <glyph glyph-name="section" unicode="&#xa7;" horiz-adv-x="374" 
d="M271 65q-10 -48 -52 -76t-96 -28q-63 0 -96 33l22 28q27 -31 83 -31q41 0 69.5 19t34.5 50q9 43 -40 68q-47 20 -94 41q-49 28 -38 80q10 44 62 80q-18 23 -11 54q9 43 48 69.5t92 26.5t92 -26l-23 -29q-30 26 -80 26q-34 0 -60 -17.5t-32 -43.5q-6 -27 20 -45
q16 -12 64 -30q99 -36 84 -103q-9 -46 -60 -86q19 -24 11 -60zM282 206q5 20 -12 40.5t-48 32.5q-56 20 -76 34q-40 -29 -47 -62q-6 -28 24 -49q19 -13 66 -31q43 -17 54 -27q33 31 39 62z" />
    <glyph glyph-name="dieresis" unicode="&#xa8;" horiz-adv-x="212" 
d="M150 422q-3 -13 -13.5 -21.5t-23.5 -8.5t-20 8.5t-4 21.5t13.5 22t23.5 9t20 -9t4 -22zM274 422q-3 -13 -13.5 -21.5t-23.5 -8.5t-20 8.5t-4 21.5t13.5 22t23.5 9t20 -9t4 -22z" />
    <glyph glyph-name="copyright" unicode="&#xa9;" horiz-adv-x="536" 
d="M385 117q-38 -29 -105 -29q-65 0 -104 42t-39 103q0 70 41 110.5t107 40.5q63 0 95 -24l-12 -30q-38 22 -83 22q-108 -6 -108 -114q0 -109 109 -115q51 0 86 25zM526 240q0 -100 -71.5 -171.5t-171.5 -71.5t-171.5 71.5t-71.5 171.5t71.5 171.5t171.5 71.5t171.5 -71.5
t71.5 -171.5zM490 240q0 86 -60.5 146.5t-146.5 60.5t-146.5 -60.5t-60.5 -146.5t60.5 -146.5t146.5 -60.5t146.5 60.5t60.5 146.5z" />
    <glyph glyph-name="ordfeminine" unicode="&#xaa;" horiz-adv-x="272" 
d="M274 443l-33 -149q-2 -9 -2 -20q0 -16 5 -25l-34 -8q-4 11 -4 24q0 10 1 17q-43 -41 -91 -41q-39 0 -61.5 23t-22.5 60q0 59 39 106.5t98 47.5q62 0 105 -35zM216 343l20 89q-31 20 -64 20q-45 0 -75 -39.5t-30 -85.5q0 -60 58 -60q30 0 57 23t34 53z" />
    <glyph glyph-name="guillemotleft" unicode="&#xab;" horiz-adv-x="298" 
d="M200 48l-84 129l138 132h42l-138 -132l84 -129h-42zM89 48l-84 129l138 132h42l-138 -132l84 -129h-42z" />
    <glyph glyph-name="logicalnot" unicode="&#xac;" horiz-adv-x="420" 
d="M407 91h-39v148h-325v33h364v-181z" />
    <glyph glyph-name="registered" unicode="&#xae;" horiz-adv-x="536" 
d="M394 99h-39q-18 118 -65 118h-61v-118h-40v282q36 7 83 8q53 0 82.5 -22.5t29.5 -61.5q0 -52 -41 -74q39 -35 51 -132zM345 300q0 54 -69 54q-27 0 -47 -3v-97h54q28 0 45 12t17 34zM526 240q0 -100 -71.5 -171.5t-171.5 -71.5t-171.5 71.5t-71.5 171.5t71.5 171.5
t171.5 71.5t171.5 -71.5t71.5 -171.5zM490 240q0 86 -60.5 146.5t-146.5 60.5t-146.5 -60.5t-60.5 -146.5t60.5 -146.5t146.5 -60.5t146.5 60.5t60.5 146.5z" />
    <glyph glyph-name="macron" unicode="&#xaf;" horiz-adv-x="352" 
d="M427 559l-6 -31h-352l6 31h352z" />
    <glyph glyph-name="degree" unicode="&#xb0;" horiz-adv-x="212" 
d="M232 397q-8 -35 -38.5 -60t-65.5 -25t-55 25t-12 60q7 35 37.5 60.5t65.5 25.5t55 -25.5t13 -60.5zM202 397q5 23 -8 40t-36 17t-42.5 -17t-24.5 -40t7.5 -39.5t35.5 -16.5t43 16.5t25 39.5z" />
    <glyph glyph-name="plusminus" unicode="&#xb1;" horiz-adv-x="411" 
d="M372 201h-150l-28 -133h-35l28 133h-150l7 32h150l26 124h35l-26 -124h150zM330 0h-335l6 32h335z" />
    <glyph glyph-name="twosuperior" unicode="&#xb2;" horiz-adv-x="254" 
d="M215 227l-11 -31h-181q11 41 91 105q33 25 64 52t37 54q9 43 -34 43q-48 0 -65 -55l-32 6q12 38 39.5 59t61.5 21q35 0 53 -20t11 -54q-9 -41 -75 -97q-49 -42 -98 -83h139z" />
    <glyph glyph-name="threesuperior" unicode="&#xb3;" horiz-adv-x="254" 
d="M235 298q-10 -46 -46 -73.5t-85 -28.5q-44 -1 -67 20l22 32q19 -19 49 -19q37 0 62 19t32 49q9 44 -33 44q-28 0 -47 -14l-9 25q58 35 65 40q27 19 31 37q4 20 -29 20q-41 0 -67 -44l-26 15q40 62 103 62t52 -52q-4 -18 -22 -37t-36 -26q65 -4 51 -69z" />
    <glyph glyph-name="acute" unicode="&#xb4;" horiz-adv-x="212" 
d="M154 528h-31l69 91h50z" />
    <glyph glyph-name="mu" unicode="&#xb5;" horiz-adv-x="406" 
d="M325 83q-7 -37 1 -82l-39 -8q-5 34 -1 70q-72 -72 -143 -72q-58 0 -83 51l-38 -182h-37l101 480h38l-41 -194q-26 -121 76 -121q44 0 87 33.5t52 74.5l44 207h38z" />
    <glyph glyph-name="paragraph" unicode="&#xb6;" horiz-adv-x="374" 
d="M264 -63h-34l108 506h-48l-108 -506h-35l52 243h-4q-60 0 -97 35q-42 40 -28 106q32 154 230 154q53 0 77 -5z" />
    <glyph glyph-name="periodcentered" unicode="&#xb7;" horiz-adv-x="162" 
d="M110 181q-3 -14 -15.5 -24t-26.5 -10t-22 10t-5 24t15 24.5t26 10.5t22.5 -10.5t5.5 -24.5z" />
    <glyph glyph-name="cedilla" unicode="&#xb8;" horiz-adv-x="212" 
d="M92 -81q-12 -58 -82 -58q-23 0 -44 13l14 22q19 -10 36 -10q38 0 44 28q6 25 -56 30l51 60h32l-35 -38q48 -12 40 -47z" />
    <glyph glyph-name="onesuperior" unicode="&#xb9;" horiz-adv-x="254" 
d="M193 201h-122l5 24h44l44 205l-45 -33l-14 24l84 63q21 -2 15 -28l-49 -231h43z" />
    <glyph glyph-name="ordmasculine" unicode="&#xba;" horiz-adv-x="285" 
d="M297 360q-10 -50 -55 -86t-94 -36q-50 0 -78 36t-18 86q11 49 55 86t94 37q49 0 78 -37t18 -86zM262 360q8 36 -12.5 62t-56.5 26t-67 -26t-39 -62q-7 -36 13 -61.5t56 -25.5t67.5 25.5t38.5 61.5z" />
    <glyph glyph-name="guillemotright" unicode="&#xbb;" horiz-adv-x="294" 
d="M28 48h-41l137 129l-82 132h42l82 -132zM139 48h-42l138 129l-82 132h42l82 -132z" />
    <glyph glyph-name="onequarter" unicode="&#xbc;" horiz-adv-x="536" 
d="M101 -9h-33l385 476h33zM161 186h-122l5 24h44l43 201l-45 -33l-14 24l84 63q21 -2 15 -28l-48 -227h43zM400 95l31 148q-33 -24 -66 -72q-31 -44 -40 -76h75zM470 62h-42l-13 -62h-35l13 62h-112q15 67 67 137q62 85 128 87l-41 -191h44z" />
    <glyph glyph-name="onehalf" unicode="&#xbd;" horiz-adv-x="536" 
d="M101 -9h-33l385 476h33zM161 186h-122l5 24h44l43 201l-45 -33l-14 24l84 63q21 -2 15 -28l-48 -227h43zM463 0h-181q10 41 91 105q32 25 63.5 52t36.5 54q9 43 -34 43q-48 0 -64 -55l-33 6q12 38 39.5 59t61.5 21q36 0 54.5 -19.5t10.5 -54.5q-8 -41 -74 -97
q-50 -42 -96 -83h135z" />
    <glyph glyph-name="threequarters" unicode="&#xbe;" horiz-adv-x="536" 
d="M101 -9h-33l385 476h33zM232 286q-9 -46 -45 -73.5t-85 -28.5q-45 -1 -67 20l22 32q19 -19 49 -19q37 0 62 19t31 49q9 44 -33 44q-28 0 -47 -14l-8 25q57 35 64 40q27 19 31 37q4 20 -29 20q-45 0 -67 -44l-26 15q40 62 103 62t52 -52q-3 -18 -21.5 -37t-36.5 -26
q64 -10 51 -69zM400 95l31 148q-33 -24 -66 -72q-31 -44 -40 -76h75zM470 62h-42l-13 -62h-35l13 62h-112q15 67 67 137q62 85 128 87l-41 -191h44z" />
    <glyph glyph-name="questiondown" unicode="&#xbf;" horiz-adv-x="289" 
d="M181 -122q-55 -31 -109 -31q-57 0 -79 33q-21 29 -12 72q12 53 88 120q60 52 71 103q4 18 3 32h34q2 -15 -2 -35q-11 -53 -78.5 -114t-76.5 -104q-16 -72 66 -72q47 0 86 26zM219 304q-3 -15 -16.5 -26t-28.5 -11t-23.5 11t-5.5 26t16.5 26t28.5 11t23.5 -11t5.5 -26z
" />
    <glyph glyph-name="Acircumflex" unicode="&#xc2;" horiz-adv-x="400" 
d="M357 0h-43l-23 153h-205l-86 -153h-43l282 483h40zM286 186l-36 254l-145 -254h181zM299 606l53 -78h-37l-35 52l-57 -52h-37l85 78h28z" />
    <glyph glyph-name="Adieresis" unicode="&#xc4;" horiz-adv-x="400" 
d="M357 0h-43l-23 153h-205l-86 -153h-43l282 483h40zM286 186l-36 254l-145 -254h181zM243 558q-3 -13 -13.5 -21.5t-23.5 -8.5t-20 8.5t-4 21.5t13.5 22t23.5 9t20 -9t4 -22zM367 558q-3 -13 -13.5 -21.5t-23.5 -8.5t-20 8.5t-4 21.5t13.5 22t23.5 9t20 -9t4 -22z" />
    <glyph glyph-name="Aring" unicode="&#xc5;" horiz-adv-x="400" 
d="M357 0h-43l-23 153h-205l-86 -153h-43l282 483h40zM286 186l-36 254l-145 -254h181zM352 576q-6 -29 -32 -50.5t-57 -21.5q-29 0 -46 21.5t-11 50.5q7 31 33 53t55 22q31 0 48 -22t10 -53zM323 575q4 19 -6 31.5t-29 12.5q-18 0 -32.5 -12.5t-18.5 -31.5q-4 -17 5.5 -29
t27.5 -12q19 0 34 12t19 29z" />
    <glyph glyph-name="AE" unicode="&#xc6;" horiz-adv-x="582" 
d="M501 0h-214l13 196h-164l-145 -196h-41l356 476h284l-7 -33h-228l-14 -176h193l-7 -33h-188l-12 -201h181zM302 228l20 220l-163 -220h143z" />
    <glyph glyph-name="Ccedilla" unicode="&#xc7;" horiz-adv-x="406" 
d="M334 50l5 -32q-58 -25 -135 -25q-97 0 -146.5 69.5t-27.5 176.5q23 107 102 175.5t176 68.5q77 0 125 -25l-19 -32q-49 23 -111 23q-77 0 -143 -57q-70 -60 -90 -154t24 -154q42 -57 119 -57q62 0 121 23zM201 -81q-12 -58 -82 -58q-23 0 -44 13l14 22q19 -10 36 -10
q38 0 44 28q6 25 -56 30l51 60h32l-35 -38q48 -12 40 -47z" />
    <glyph glyph-name="Ecircumflex" unicode="&#xca;" horiz-adv-x="351" 
d="M270 0h-259l101 476h259l-7 -33h-220l-38 -175h196l-7 -33h-196l-42 -202h220zM274 606l53 -78h-37l-35 52l-57 -52h-37l85 78h28z" />
    <glyph glyph-name="Edieresis" unicode="&#xcb;" horiz-adv-x="351" 
d="M270 0h-259l101 476h259l-7 -33h-220l-38 -175h196l-7 -33h-196l-42 -202h220zM219 558q-3 -13 -13.5 -21.5t-23.5 -8.5t-20 8.5t-4 21.5t13.5 22t23.5 9t20 -9t4 -22zM343 558q-3 -13 -13.5 -21.5t-23.5 -8.5t-20 8.5t-4 21.5t13.5 22t23.5 9t20 -9t4 -22z" />
    <glyph glyph-name="Icircumflex" unicode="&#xce;" horiz-adv-x="147" 
d="M50 0h-39l101 476h39zM174 606l53 -78h-37l-35 52l-57 -52h-37l85 78h28z" />
    <glyph glyph-name="Idieresis" unicode="&#xcf;" horiz-adv-x="147" 
d="M50 0h-39l101 476h39zM118 558q-3 -13 -13.5 -21.5t-23.5 -8.5t-20 8.5t-4 21.5t13.5 22t23.5 9t20 -9t4 -22zM242 558q-3 -13 -13.5 -21.5t-23.5 -8.5t-20 8.5t-4 21.5t13.5 22t23.5 9t20 -9t4 -22z" />
    <glyph glyph-name="Eth" unicode="&#xd0;" horiz-adv-x="431" 
d="M411 248q-53 -252 -279 -252q-30 0 -120 9l44 208h-49l7 33h49l47 223q95 12 145 12q91 0 135 -61q44 -64 21 -172zM372 248q20 95 -18 149q-35 50 -109 50q-31 0 -102 -8l-41 -193h168l-7 -33h-168l-38 -177q49 -6 94 -6q81 0 140 57.5t81 160.5z" />
    <glyph glyph-name="Ntilde" unicode="&#xd1;" horiz-adv-x="441" 
d="M344 0h-41l-163 421l-89 -421h-40l101 476h45l161 -415l89 415h38zM359 590h28q-15 -62 -61 -62q-13 0 -37.5 14t-33.5 14q-17 0 -26 -32h-26q16 64 58 64q13 0 36 -15t38 -15q17 0 24 32z" />
    <glyph glyph-name="Ocircumflex" unicode="&#xd4;" horiz-adv-x="486" 
d="M471 237q-23 -107 -99.5 -177t-174.5 -70t-144.5 70t-23.5 177t99 177t174 70t145 -70t24 -177zM432 237q19 88 -19 150.5t-118 62.5t-144 -62.5t-83 -150.5t19 -150.5t118 -62.5t144 62.5t83 150.5zM342 606l53 -78h-37l-35 52l-57 -52h-37l85 78h28z" />
    <glyph glyph-name="Odieresis" unicode="&#xd6;" horiz-adv-x="486" 
d="M471 237q-23 -107 -99.5 -177t-174.5 -70t-144.5 70t-23.5 177t99 177t174 70t145 -70t24 -177zM432 237q19 88 -19 150.5t-118 62.5t-144 -62.5t-83 -150.5t19 -150.5t118 -62.5t144 62.5t83 150.5zM286 558q-3 -13 -13.5 -21.5t-23.5 -8.5t-20 8.5t-4 21.5t13.5 22
t23.5 9t20 -9t4 -22zM410 558q-3 -13 -13.5 -21.5t-23.5 -8.5t-20 8.5t-4 21.5t13.5 22t23.5 9t20 -9t4 -22z" />
    <glyph glyph-name="multiply" unicode="&#xd7;" horiz-adv-x="411" 
d="M296 11l-103 138l-161 -138l-21 24l161 139l-102 139l31 24l103 -138l161 138l21 -24l-162 -139l103 -139z" />
    <glyph glyph-name="Oslash" unicode="&#xd8;" horiz-adv-x="486" 
d="M471 237q-23 -107 -99.5 -177t-174.5 -70q-51 0 -88 18l-26 -37h-38l38 54q-17 15 -31 35q-46 70 -23 177t99 177t174 70q51 0 89 -20l20 29h41l-34 -47q16 -14 28 -32q48 -70 25 -177zM368 432q-31 18 -73 18q-80 0 -144 -62.5t-83 -150.5t19 -151q9 -15 20 -26z
M432 237q19 88 -19 150q-8 14 -19 24l-262 -370q31 -17 73 -17q80 0 144 62.5t83 150.5z" />
    <glyph glyph-name="Ucircumflex" unicode="&#xdb;" horiz-adv-x="466" 
d="M411 201q-44 -210 -223 -210t-135 210l59 275h39l-59 -274q-20 -94 10 -136t93 -42q64 0 111 42t66 136l59 274h39zM332 606l53 -78h-37l-35 52l-57 -52h-37l85 78h28z" />
    <glyph glyph-name="Udieresis" unicode="&#xdc;" horiz-adv-x="466" 
d="M411 201q-44 -210 -223 -210t-135 210l59 275h39l-59 -274q-20 -94 10 -136t93 -42q64 0 111 42t66 136l59 274h39zM276 558q-3 -13 -13.5 -21.5t-23.5 -8.5t-20 8.5t-4 21.5t13.5 22t23.5 9t20 -9t4 -22zM400 558q-3 -13 -13.5 -21.5t-23.5 -8.5t-20 8.5t-4 21.5
t13.5 22t23.5 9t20 -9t4 -22z" />
    <glyph glyph-name="Thorn" unicode="&#xde;" horiz-adv-x="380" 
d="M363 262q-16 -75 -74.5 -113.5t-145.5 -38.5q-25 0 -63 8l-25 -118h-38l101 476h38l-20 -94q44 11 84 11q67 0 109 -32q47 -37 34 -99zM325 257q11 53 -24 81q-30 23 -88 23q-37 0 -85 -14l-41 -194q34 -11 65 -11q72 0 117 30.5t56 84.5z" />
    <glyph glyph-name="germandbls" unicode="&#xdf;" horiz-adv-x="392" 
d="M334 102q-10 -49 -47 -79q-39 -32 -97 -32q-49 0 -81 20l19 33q34 -20 70 -20q40 0 66 20.5t33 51.5q7 34 -34.5 78.5t-33.5 82.5q6 27 47 59.5t45 52.5q17 82 -70 82q-100 0 -134 -164l-73 -341q-11 -54 -42 -94l-33 10q27 39 36 84l76 358q39 183 185 183
q50 0 77 -31.5t15 -84.5q-8 -40 -47 -67t-44 -50q-3 -17 24 -46t31 -39q19 -35 12 -67z" />
    <glyph glyph-name="acircumflex" unicode="&#xe2;" horiz-adv-x="398" 
d="M320 69q-9 -40 3 -68l-39 -8q-11 36 -5 69q-55 -72 -141 -72q-58 0 -90 33.5t-32 89.5q0 88 57 158q60 75 146 75q89 1 151 -50zM296 143l31 136q-51 35 -103 35q-73 -1 -124 -65q-46 -60 -46 -131q0 -44 25.5 -70.5t71.5 -26.5q51 0 92.5 36.5t52.5 85.5zM297 470
l53 -78h-37l-35 52l-57 -52h-37l85 78h28z" />
    <glyph glyph-name="adieresis" unicode="&#xe4;" horiz-adv-x="398" 
d="M320 69q-9 -40 3 -68l-39 -8q-11 36 -5 69q-55 -72 -141 -72q-58 0 -90 33.5t-32 89.5q0 88 57 158q60 75 146 75q89 1 151 -50zM296 143l31 136q-51 35 -103 35q-73 -1 -124 -65q-46 -60 -46 -131q0 -44 25.5 -70.5t71.5 -26.5q51 0 92.5 36.5t52.5 85.5zM244 422
q-3 -13 -13.5 -21.5t-23.5 -8.5t-20 8.5t-4 21.5t13.5 22t23.5 9t20 -9t4 -22zM368 422q-3 -13 -13.5 -21.5t-23.5 -8.5t-20 8.5t-4 21.5t13.5 22t23.5 9t20 -9t4 -22z" />
    <glyph glyph-name="aring" unicode="&#xe5;" horiz-adv-x="398" 
d="M320 69q-9 -40 3 -68l-39 -8q-11 36 -5 69q-55 -72 -141 -72q-58 0 -90 33.5t-32 89.5q0 88 57 158q60 75 146 75q89 1 151 -50zM296 143l31 136q-51 35 -103 35q-73 -1 -124 -65q-46 -60 -46 -131q0 -44 25.5 -70.5t71.5 -26.5q51 0 92.5 36.5t52.5 85.5zM361 440
q-6 -29 -32 -50.5t-57 -21.5q-29 0 -46 21.5t-11 50.5q7 31 33 53t55 22q31 0 48 -22t10 -53zM332 439q4 19 -6 31.5t-29 12.5q-18 0 -32.5 -12.5t-18.5 -31.5q-4 -17 5.5 -29t27.5 -12q19 0 34 12t19 29z" />
    <glyph glyph-name="ae" unicode="&#xe6;" horiz-adv-x="608" 
d="M517 48l-4 -33q-63 -24 -131 -24q-103 0 -134 87q-46 -87 -159 -87q-44 0 -70.5 25t-17.5 69q27 127 248 127h6l1 6q7 33 -3 58q-14 40 -69 40q-35 0 -113 -23l2 36q60 18 120 18q92 0 103 -76q64 76 157 76q143 0 108 -179h-278q-12 -68 18.5 -105.5t91.5 -37.5
q60 0 124 23zM240 143l7 35q-186 0 -204 -86q-7 -33 9.5 -50.5t46.5 -17.5q44 0 79 23q48 31 62 96zM292 199h239q8 41 -8 73q-20 44 -81 44q-55 0 -99 -40q-35 -32 -51 -77z" />
    <glyph glyph-name="ccedilla" unicode="&#xe7;" horiz-adv-x="331" 
d="M264 47l8 -32q-48 -24 -110 -24q-84 0 -122 48.5t-21 129.5q18 81 76 129.5t142 48.5q62 0 100 -24l-21 -32q-32 24 -88 24q-61 0 -108.5 -39t-62.5 -107q-14 -68 17 -107t92 -39q56 0 98 24zM155.704 -72.9023q-10.7998 -52.2012 -73.8018 -52.2012
q-20.7012 0 -39.6016 11.7002l12.6006 19.8008q17.1006 -9 32.4014 -9q34.2002 0 39.6006 25.2002q5.40039 22.501 -50.4014 27.001l45.9014 54.001h28.8008l-31.501 -34.2002q43.2012 -10.8008 36.001 -42.3018z" />
    <glyph glyph-name="ecircumflex" unicode="&#xea;" horiz-adv-x="374" 
d="M344 253q0 -119 -203 -119q-37 0 -87 4q-1 -8 -1 -15q0 -98 114 -98q58 0 124 23l-4 -33q-63 -24 -131 -24q-65 0 -104 35t-39 94q0 95 67 163q64 64 147 64q117 0 117 -94zM309 254q0 62 -82 62q-51 0 -101 -41q-53 -44 -70 -105q41 -3 73 -3q180 0 180 87zM257 470
l53 -78h-37l-35 52l-57 -52h-37l85 78h28z" />
    <glyph glyph-name="edieresis" unicode="&#xeb;" horiz-adv-x="374" 
d="M344 253q0 -119 -203 -119q-37 0 -87 4q-1 -8 -1 -15q0 -98 114 -98q58 0 124 23l-4 -33q-63 -24 -131 -24q-65 0 -104 35t-39 94q0 95 67 163q64 64 147 64q117 0 117 -94zM309 254q0 62 -82 62q-51 0 -101 -41q-53 -44 -70 -105q41 -3 73 -3q180 0 180 87zM201 422
q-3 -13 -13.5 -21.5t-23.5 -8.5t-20 8.5t-4 21.5t13.5 22t23.5 9t20 -9t4 -22zM325 422q-3 -13 -13.5 -21.5t-23.5 -8.5t-20 8.5t-4 21.5t13.5 22t23.5 9t20 -9t4 -22z" />
    <glyph glyph-name="icircumflex" unicode="&#xee;" horiz-adv-x="143" 
d="M47 0h-38l72 340h38zM143 470l53 -78h-37l-35 52l-57 -52h-37l85 78h28z" />
    <glyph glyph-name="idieresis" unicode="&#xef;" horiz-adv-x="143" 
d="M47 0h-38l72 340h38zM87 422q-3 -13 -13.5 -21.5t-23.5 -8.5t-20 8.5t-4 21.5t13.5 22t23.5 9t20 -9t4 -22zM211 422q-3 -13 -13.5 -21.5t-23.5 -8.5t-20 8.5t-4 21.5t13.5 22t23.5 9t20 -9t4 -22z" />
    <glyph glyph-name="eth" unicode="&#xf0;" horiz-adv-x="362" 
d="M313 163q-15 -73 -62 -121q-52 -54 -123 -54q-63 0 -90 44t-14 109q14 63 60.5 108t105.5 45q42 0 70 -20q19 -16 21 -30q-6 78 -55 136l-98 -55l-12 27l89 50q-38 34 -86 49l10 29q68 -14 113 -57l86 49l11 -27l-76 -44q13 -15 23 -33q52 -90 27 -205zM268 141
q11 50 -11.5 85t-65.5 35q-47 0 -81.5 -35t-45.5 -85q-10 -49 9 -84t67 -35q43 0 80.5 35t47.5 84z" />
    <glyph glyph-name="ntilde" unicode="&#xf1;" horiz-adv-x="390" 
d="M310 69q-8 -42 3 -68l-39 -8q-11 34 -4 67l27 133q25 122 -77 122q-41 0 -80.5 -34.5t-48.5 -74.5l-43 -206h-39l57 270q8 42 -3 68l39 8q11 -34 4 -67q53 68 129 68q133 0 101 -154zM304 454h28q-15 -62 -61 -62q-13 0 -37.5 14t-33.5 14q-17 0 -26 -32h-26q16 64 58 64
q13 0 36 -15t38 -15q17 0 24 32z" />
    <glyph glyph-name="ocircumflex" unicode="&#xf4;" horiz-adv-x="398" 
d="M362 169q-16 -75 -74 -127t-135 -52t-113 52t-20 127t74 126.5t135 51.5t113 -51.5t20 -126.5zM324 169q14 62 -15 103.5t-87 41.5t-104 -41.5t-60 -103.5q-13 -62 15.5 -104t86.5 -42t104.5 42t59.5 104zM269 470l53 -78h-37l-35 52l-57 -52h-37l85 78h28z" />
    <glyph glyph-name="odieresis" unicode="&#xf6;" horiz-adv-x="398" 
d="M362 169q-16 -75 -74 -127t-135 -52t-113 52t-20 127t74 126.5t135 51.5t113 -51.5t20 -126.5zM324 169q14 62 -15 103.5t-87 41.5t-104 -41.5t-60 -103.5q-13 -62 15.5 -104t86.5 -42t104.5 42t59.5 104zM213 422q-3 -13 -13.5 -21.5t-23.5 -8.5t-20 8.5t-4 21.5
t13.5 22t23.5 9t20 -9t4 -22zM337 422q-3 -13 -13.5 -21.5t-23.5 -8.5t-20 8.5t-4 21.5t13.5 22t23.5 9t20 -9t4 -22z" />
    <glyph glyph-name="divide" unicode="&#xf7;" horiz-adv-x="411" 
d="M260 302q-3 -14 -14.5 -24.5t-25.5 -10.5q-15 0 -21.5 10.5t-3.5 24.5q4 14 15 24t25 10t21 -10t4 -24zM207 59q-3 -14 -14 -24t-25 -10q-15 0 -21.5 10t-3.5 24t14 24.5t26 10.5q14 0 20.5 -10.5t3.5 -24.5zM365 165h-335l7 33h335z" />
    <glyph glyph-name="oslash" unicode="&#xf8;" horiz-adv-x="398" 
d="M362 169q-16 -75 -74 -127t-135 -52q-44 0 -79 20l-33 -39h-40l49 59q-48 51 -30 139q16 75 74 126.5t135 51.5q36 0 70 -15l42 51h43l-58 -69q56 -51 36 -145zM324 169q16 71 -23 114l-202 -243q25 -17 61 -17q58 0 104.5 42t59.5 104zM75 61l200 241q-23 12 -53 12
q-58 0 -104 -41.5t-60 -103.5q-13 -65 17 -108z" />
    <glyph glyph-name="ucircumflex" unicode="&#xfb;" horiz-adv-x="390" 
d="M312 1l-39 -8q-5 34 -2 66q-58 -68 -142 -68q-122 0 -89 158l26 121q8 42 -3 68l39 8q11 -34 5 -67l-26 -123q-28 -131 64 -131q43 0 84 28q45 32 55 81l44 206h39l-55 -257q-8 -37 0 -82zM265 470l53 -78h-37l-35 52l-57 -52h-37l85 78h28z" />
    <glyph glyph-name="udieresis" unicode="&#xfc;" horiz-adv-x="390" 
d="M312 1l-39 -8q-5 34 -2 66q-58 -68 -142 -68q-122 0 -89 158l26 121q8 42 -3 68l39 8q11 -34 5 -67l-26 -123q-28 -131 64 -131q43 0 84 28q45 32 55 81l44 206h39l-55 -257q-8 -37 0 -82zM209 422q-3 -13 -13.5 -21.5t-23.5 -8.5t-20 8.5t-4 21.5t13.5 22t23.5 9t20 -9
t4 -22zM333 422q-3 -13 -13.5 -21.5t-23.5 -8.5t-20 8.5t-4 21.5t13.5 22t23.5 9t20 -9t4 -22z" />
    <glyph glyph-name="thorn" unicode="&#xfe;" horiz-adv-x="432" 
d="M395 176q-19 -87 -81 -138q-58 -47 -132 -47q-82 0 -115 62l-41 -193h-37l128 610h38l-40 -192q65 69 153 69q72 0 108 -51q34 -48 19 -120zM358 175q13 61 -15 101t-88 40q-91 0 -142 -83q-12 -20 -16 -40l-13 -59q-2 -10 -1 -30q7 -34 36 -57t73 -23q59 0 105 40
t61 111z" />
    <glyph glyph-name="ydieresis" unicode="&#xff;" horiz-adv-x="337" 
d="M141 0q-88 -133 -190 -156l-2 31q88 19 157 136q0 3 -1 12l-73 317h42l66 -288l180 288h43zM183 422q-3 -13 -13.5 -21.5t-23.5 -8.5t-20 8.5t-4 21.5t13.5 22t23.5 9t20 -9t4 -22zM307 422q-3 -13 -13.5 -21.5t-23.5 -8.5t-20 8.5t-4 21.5t13.5 22t23.5 9t20 -9t4 -22z
" />
    <glyph glyph-name="dotlessi" unicode="&#x131;" horiz-adv-x="143" 
d="M47 0h-38l72 340h38z" />
    <glyph glyph-name="Lslash" unicode="&#x141;" horiz-adv-x="361" 
d="M290 0h-273l41 194l-35 -10l-3 31l45 13l53 248h39l-50 -235l231 69l-7 -37l-232 -66l-36 -174h234z" />
    <glyph glyph-name="lslash" unicode="&#x142;" horiz-adv-x="209" 
d="M194 268l-7 -35l-88 -27l-4 -20q-16 -74 -9 -106q8 -51 66 -53l-11 -34q-125 6 -88 178l5 23l-35 -10l-3 31l45 13l59 277h39l-56 -264z" />
    <glyph glyph-name="OE" unicode="&#x152;" horiz-adv-x="711" 
d="M637 33l-7 -33h-259l15 74q-81 -84 -189 -84q-98 0 -144.5 70t-23.5 177t99 177t174 70q108 0 154 -84l16 76h259l-7 -33h-220l-38 -175h196l-7 -33h-196l-42 -202h220zM401 145l38 175q3 49 -39 89q-44 41 -105 41q-80 0 -144 -62.5t-83 -150.5t19 -150.5t118 -62.5
q57 0 109.5 33t86.5 88z" />
    <glyph glyph-name="oe" unicode="&#x153;" horiz-adv-x="679" 
d="M596 48l-4 -33q-63 -24 -131 -24q-110 0 -138 90q-65 -91 -170 -91q-77 0 -113 52t-20 127t74 126.5t135 51.5q108 0 132 -93q63 93 171 93q143 0 108 -179h-278q-15 -71 16.5 -107t93.5 -36q59 0 124 23zM324 169q14 61 -14.5 103t-87.5 42q-58 0 -104 -41.5t-60 -103.5
q-13 -62 15.5 -104t86.5 -42q57 0 103.5 41.5t60.5 104.5zM610 199q9 51 -14.5 84t-74.5 33q-49 0 -90 -32.5t-60 -84.5h239z" />
    <glyph glyph-name="Scaron" unicode="&#x160;" horiz-adv-x="352" 
d="M303 124q-12 -54 -58 -90q-53 -43 -132 -43q-78 0 -123 36l22 34q42 -37 112 -37q56 0 93.5 26.5t46.5 70.5q9 40 -10.5 64.5t-72.5 42.5q-124 43 -105 134q12 53 60.5 88t114.5 35q67 0 103 -25q-12 -17 -23 -31q-38 23 -88 23q-56 0 -93 -29q-29 -24 -35 -56
q-15 -66 84 -102q64 -24 88 -52q28 -33 16 -89zM257 520h-28l-52 78h37l35 -52l57 52h37z" />
    <glyph glyph-name="scaron" unicode="&#x161;" horiz-adv-x="282" 
d="M224 90q-10 -43 -48 -71t-96 -28q-50 0 -90 27l21 32q43 -26 79 -26q84 0 97 63q10 49 -63 73q-86 28 -72 92q8 39 43.5 67t88.5 28t79 -23l-22 -32q-25 24 -70 24q-32 0 -54 -17t-27 -42q-8 -40 64 -67q84 -31 70 -100zM193 384h-28l-52 78h37l35 -52l57 52h37z" />
    <glyph glyph-name="Ydieresis" unicode="&#x178;" horiz-adv-x="382" 
d="M431 476l-221 -266l-44 -210h-38l44 209l-107 267h45l88 -233l188 233h45zM234 555q-3 -13 -13.5 -21.5t-23.5 -8.5t-20 8.5t-4 21.5t13.5 22t23.5 9t20 -9t4 -22zM358 555q-3 -13 -13.5 -21.5t-23.5 -8.5t-20 8.5t-4 21.5t13.5 22t23.5 9t20 -9t4 -22z" />
    <glyph glyph-name="Zcaron" horiz-adv-x="424" 
d="M372 33l-15 -33h-378l6 26l411 417h-303l13 33h347l-6 -27l-410 -416h335zM293 520h-28l-52 78h37l35 -52l57 52h37z" />
    <glyph glyph-name="Zcaron" unicode="&#x17d;" horiz-adv-x="424" 
d="M372 33l-15 -33h-378l6 26l411 417h-303l13 33h347l-6 -27l-410 -416h335zM293 520h-28l-52 78h37l35 -52l57 52h37z" />
    <glyph glyph-name="zcaron" horiz-adv-x="321" 
d="M258 0h-286l6 24l299 284h-228l13 32h271l-7 -27l-299 -281h245zM212 384h-28l-52 78h37l35 -52l57 52h37z" />
    <glyph glyph-name="zcaron" unicode="&#x17e;" horiz-adv-x="321" 
d="M258 0h-286l6 24l299 284h-228l13 32h271l-7 -27l-299 -281h245zM212 384h-28l-52 78h37l35 -52l57 52h37z" />
    <glyph glyph-name="florin" unicode="&#x192;" horiz-adv-x="398" 
d="M460 446l-23 -28q-16 11 -44 11q-78 0 -134 -127l-12 -26h98l-12 -31h-98l-68 -157q-69 -160 -188 -160q-38 0 -50 16l23 28q16 -11 44 -11q77 0 132 127l68 157h-57l12 31h58l12 26q71 160 189 160q38 0 50 -16z" />
    <glyph glyph-name="circumflex" unicode="&#x2c6;" horiz-adv-x="212" 
d="M205 470l53 -78h-37l-35 52l-57 -52h-37l85 78h28z" />
    <glyph glyph-name="caron" unicode="&#x2c7;" horiz-adv-x="212" 
d="M158 384h-28l-52 78h37l35 -52l57 52h37z" />
    <glyph glyph-name="breve" unicode="&#x2d8;" horiz-adv-x="302" 
d="M321 453q-11 -27 -34 -44q-31 -24 -70 -24t-61 24q-14 17 -14 44h35q1 -11 7 -19q12 -18 40 -18t47 18q9 8 16 19h34z" />
    <glyph glyph-name="dotaccent" unicode="&#x2d9;" horiz-adv-x="302" 
d="M256 540q-3 -14 -15 -23.5t-27 -9.5q-14 0 -21.5 9.5t-4.5 23.5t15 24.5t26 10.5q15 0 22.5 -10.5t4.5 -24.5z" />
    <glyph glyph-name="ring" unicode="&#x2da;" horiz-adv-x="302" 
d="M307 440q-6 -29 -32 -50.5t-57 -21.5q-29 0 -46 21.5t-11 50.5q7 31 33 53t55 22q31 0 48 -22t10 -53zM278 439q4 19 -6 31.5t-29 12.5q-18 0 -32.5 -12.5t-18.5 -31.5q-4 -17 5.5 -29t27.5 -12q19 0 34 12t19 29z" />
    <glyph glyph-name="ogonek" unicode="&#x2db;" horiz-adv-x="302" 
d="M144 -143q-21 -8 -37.5 -11.5t-33.5 -3.5q-36 0 -48.5 21.5t-6.5 50.5q4 18 14 41t23 49h40q-29 -49 -36 -80q-9 -43 30 -46q30 0 62 15z" />
    <glyph glyph-name="tilde" unicode="&#x2dc;" horiz-adv-x="212" 
d="M247 457q-7 -26 -23.5 -44t-39.5 -18q-9 0 -18.5 4.5t-19 9.5t-18 9.5t-15.5 4.5q-8 0 -14.5 -9t-10.5 -23h-25q6 24 19.5 44t36.5 20q10 0 19 -4.5t18 -10.5t18 -10.5t20 -4.5q7 0 14.5 7.5t12.5 24.5h26z" />
    <glyph glyph-name="hungarumlaut" unicode="&#x2dd;" horiz-adv-x="279" 
d="M183 330h-27l93 161h47zM96 330h-27l93 161h47z" />
    <glyph glyph-name="uni0E00" unicode="&#xe00;" 
 />
    <glyph glyph-name="uni0E01" unicode="&#xe01;" horiz-adv-x="386" 
d="M294 34q-12 -47 -48 -71l-28 18q34 26 43 66l45 214q10 49 -14 78t-72 29q-34 0 -70 -19t-55 -49q58 -5 72 -44q-25 -5 -47.5 -26.5t-28.5 -47.5l-38 -182h-36l38 181q13 59 69 80q-30 16 -74 11q20 56 70.5 92t108.5 36q65 0 96 -36t18 -99z" />
    <glyph glyph-name="uni0E02" unicode="&#xe02;" horiz-adv-x="378" 
d="M129 289q3 14 -4 23t-21 9t-25 -9t-14 -23t4 -23t21 -9t25 9t14 23zM296 83q-19 -91 -111 -91q-90 0 -71 91l20 95q6 25 40 68t39 67q5 23 -11 40.5t-44 17.5q-44 0 -73 -29q10 4 24 4q26 0 39 -16.5t8 -41.5q-6 -26 -26 -43.5t-46 -17.5q-31 0 -42.5 23t-4.5 56
q7 37 42 65.5t86 28.5q44 0 67.5 -22t15.5 -60q-6 -29 -40 -76t-39 -69l-19 -93q-12 -56 43 -56t67 56l61 287q8 38 29 60l28 -18q-14 -12 -24 -55z" />
    <glyph glyph-name="uni0E03" unicode="&#xe03;" horiz-adv-x="382" 
d="M124 249q3 14 -4 23t-21 9t-25 -9t-14 -23t4.5 -23t21.5 -9t24.5 9t13.5 23zM300 83q-19 -91 -111 -91q-90 0 -71 91l14 63q6 32 46.5 80.5t47.5 79.5q11 52 -26 60l-44 -42l-27 41q-37 -22 -55 -58q15 6 33 6q29 0 42 -18.5t7 -46.5q-6 -29 -28.5 -47t-49.5 -18
q-34 0 -46 28q-10 25 -3 61q9 43 41 80q35 41 78 49l17 -35l35 35q35 -4 52 -34q14 -28 6 -64q-7 -31 -46 -81t-45 -79l-13 -63q-12 -56 43 -56t67 56l61 287q8 38 29 60l28 -18q-14 -12 -24 -55z" />
    <glyph glyph-name="uni0E04" unicode="&#xe04;" horiz-adv-x="393" 
d="M301 34q-12 -47 -48 -71l-28 18q34 26 43 66l47 222q10 48 -20 73.5t-75 25.5q-46 0 -87.5 -31.5t-50.5 -77.5q-5 -22 -4 -53q2 -44 2 -50q21 57 51 97q40 52 84 52q25 0 38 -16t7 -43q-6 -25 -26.5 -42.5t-45.5 -17.5q-26 0 -41 24q-18 -21 -41 -60q-27 -48 -35 -85
l-13 -65h-36l19 92q6 29 1.5 82t1.5 81q14 65 66.5 105t118.5 40q61 0 98.5 -32.5t23.5 -95.5zM232 246q3 13 -4.5 22t-20.5 9t-23.5 -9t-13.5 -22t4 -22t20 -9t24 9t14 22z" />
    <glyph glyph-name="uni0E05" unicode="&#xe05;" horiz-adv-x="393" 
d="M301 34q-12 -47 -48 -71l-28 18q34 26 43 66l49 233q14 69 -49 85l-59 -54l-42 55q-35 -17 -60 -52q-18 -26 -23 -49q-7 -34 -6 -119q55 136 130 136q26 0 39 -16t7 -42q-5 -25 -25 -42t-44 -17q-32 0 -48 23q-16 -14 -36 -53q-22 -43 -30 -81l-11 -54h-36l17 80
q6 31 1.5 89t1.5 88q25 115 140 145l33 -51l51 51q105 -22 85 -120zM227 224q3 13 -4 22t-20 9t-24 -9t-14 -22t4.5 -22t20.5 -9t23.5 9t13.5 22z" />
    <glyph glyph-name="uni0E06" unicode="&#xe06;" horiz-adv-x="408" 
d="M144 61q3 14 -5 24.5t-22 10.5t-27 -10.5t-16 -24.5t5.5 -24.5t22.5 -10.5t26.5 10.5t15.5 24.5zM124 249q3 14 -4 23t-21 9t-25 -9t-14 -23t4.5 -23t21.5 -9t24.5 9t13.5 23zM309 0h-36q-26 82 -101 99q10 -16 5 -38q-6 -29 -29.5 -49t-52.5 -20q-30 0 -45.5 20t-9.5 49
q7 29 31 48.5t53 19.5h4l4 17q6 32 46.5 80.5t47.5 79.5q11 52 -26 60l-44 -42l-27 41q-37 -22 -55 -58q15 6 33 6q29 0 42 -18.5t7 -46.5q-6 -29 -28.5 -47t-49.5 -18q-34 0 -46 28q-10 25 -3 61q9 43 41 80q35 41 78 49l17 -35l35 35q35 -4 50.5 -31.5t7.5 -66.5
q-7 -31 -46 -81t-45 -79l-3 -15q87 -10 120 -74l67 313q8 38 29 60l28 -18q-14 -12 -24 -55z" />
    <glyph glyph-name="uni0E07" unicode="&#xe07;" horiz-adv-x="294" 
d="M233 335q3 14 -5 24t-22 10t-26 -10t-15 -24t4.5 -24t21.5 -10t26.5 10t15.5 24zM195 0h-36l-120 176q-12 19 -16 43l24 29q6 -29 23 -56l99 -141l48 224q-16 -7 -33 -7q-27 0 -42 19.5t-10 45.5q6 29 29.5 48t51.5 19q32 0 46 -21q12 -19 6 -46z" />
    <glyph glyph-name="uni0E08" unicode="&#xe08;" horiz-adv-x="367" 
d="M281 65q-15 -74 -86 -74q-56 0 -53 56l7 112q-17 -9 -36 -9q-25 0 -38 17t-8 42q5 26 26 43.5t46 17.5q22 0 36 -14.5t13 -36.5l-7 -170q-1 -25 23 -25q33 0 40 36l50 235q8 39 -19 55.5t-68 16.5q-45 0 -79 -19t-48 -52h-37q14 42 54 70q49 34 116 34q140 0 117 -105z
M158 209q3 13 -4 22t-20 9t-23.5 -9t-13.5 -22t4 -21.5t20 -8.5t23.5 8.5t13.5 21.5z" />
    <glyph glyph-name="uni0E09" unicode="&#xe09;" horiz-adv-x="377" 
d="M307 55q-5 -26 -26 -44t-50 -18q-26 0 -40 18t-9 44q2 9 4 13q-62 -24 -101 -68h-45l19 93q6 29 17 44h-4q-25 0 -39 17.5t-9 42.5q6 26 27 43.5t46 17.5q26 0 40 -17.5t8 -43.5q-4 -19 -24 -47.5t-24 -50.5l-14 -64q43 48 124 71q63 26 75 86l22 100q7 35 -24 57
q-27 18 -68 18q-38 0 -74 -18q-41 -21 -56 -55h-37q12 42 55 72q50 34 117 34q65 0 98 -26q36 -29 24 -83l-21 -101q-10 -48 -43 -75q42 -14 32 -60zM278 55q3 14 -4.5 23.5t-21.5 9.5q-13 0 -25 -9.5t-15 -23.5q-3 -13 5 -23t21 -10q14 0 25.5 10t14.5 23zM115 197
q3 13 -3.5 21.5t-19.5 8.5t-23.5 -8.5t-13.5 -21.5q-2 -13 4.5 -21.5t19.5 -8.5t23.5 8.5t12.5 21.5z" />
    <glyph glyph-name="uni0E0A" unicode="&#xe0a;" horiz-adv-x="380" 
d="M298 83q-19 -91 -112 -91q-91 0 -72 91l20 95q6 25 40 68t39 67q5 23 -11 40.5t-44 17.5q-44 0 -73 -29q10 4 24 4q26 0 39 -16.5t8 -41.5q-6 -26 -26 -43.5t-46 -17.5q-31 0 -42.5 23t-4.5 56q7 37 42 65.5t86 28.5q44 0 67.5 -22t15.5 -60q-6 -29 -40 -76t-39 -69
l-19 -93q-12 -56 44 -56t68 56l34 161q9 44 -31 59q16 46 51 81.5t85 45.5l18 -25q-79 -14 -116 -89q41 -16 30 -68zM129 289q3 14 -4 23t-21 9t-25 -9t-14 -23t4 -23t21 -9t25 9t14 23z" />
    <glyph glyph-name="uni0E0B" unicode="&#xe0b;" horiz-adv-x="384" 
d="M124 249q3 14 -4 23t-21 9t-25 -9t-14 -23t4.5 -23t21.5 -9t24.5 9t13.5 23zM302 83q-19 -91 -112 -91q-91 0 -72 91l14 63q6 32 46.5 80.5t47.5 79.5q11 52 -26 60l-44 -42l-27 41q-37 -22 -55 -58q15 6 33 6q29 0 42 -18.5t7 -46.5q-6 -29 -28.5 -47t-49.5 -18
q-34 0 -46 28q-10 25 -3 61q9 43 41 80q35 41 78 49l17 -35l35 35q35 -4 52 -34q14 -28 6 -64q-7 -31 -46 -81t-45 -79l-13 -62q-12 -57 44 -57t68 56l34 161q9 44 -31 59q16 46 51 81.5t85 45.5l18 -25q-79 -14 -116 -89q41 -16 30 -68z" />
    <glyph glyph-name="uni0E0C" unicode="&#xe0c;" horiz-adv-x="519" 
d="M420 0h-37q-17 37 -66 70q1 -8 0 -13q-6 -27 -27.5 -46.5t-52.5 -19.5q-27 0 -42.5 19.5t-9.5 46.5q5 26 26.5 45t47.5 21l30 142q22 103 -81 103q-32 0 -65 -19.5t-50 -49.5q55 -4 71 -44q-25 -5 -47.5 -26t-28.5 -47l-13 -63q10 4 24 4q27 0 42 -19.5t10 -46.5
q-6 -27 -28.5 -46.5t-51.5 -19.5t-43.5 19.5t-8.5 46.5q3 16 13 29l20 95q11 54 69 79q-35 15 -77 11q21 56 69.5 92.5t103.5 36.5q63 0 92.5 -34.5t16.5 -96.5l-32 -150q76 -28 99 -72l69 320q8 38 29 60l28 -18q-14 -12 -24 -55zM284 57q3 14 -5 24t-22 10t-25.5 -10
t-14.5 -24t4.5 -23.5t21.5 -9.5t26 9.5t15 23.5zM119 57q3 14 -5 24t-22 10t-25.5 -10t-14.5 -24t4.5 -23.5t21.5 -9.5t26 9.5t15 23.5z" />
    <glyph glyph-name="uni0E0D" unicode="&#xe0d;" horiz-adv-x="519" 
d="M427 -34q-14 -60 -52 -98.5t-101 -38.5q-40 0 -66.5 25t-18.5 62q4 22 23.5 38t41.5 16q23 0 35.5 -16t8.5 -38q-8 -37 -46 -51q10 -7 27 -7q86 0 111 108h37zM271 -84q2 11 -4.5 19t-17.5 8t-20.5 -8t-11.5 -19q-3 -11 3.5 -19t17.5 -8t20.5 8t12.5 19zM126 57
q3 14 -5 24t-22 10t-25.5 -10t-14.5 -24t4.5 -23.5t21.5 -9.5t26 9.5t15 23.5zM437 82q-19 -90 -117 -90q-97 0 -78 91l39 182q22 103 -75 103q-32 0 -63.5 -19t-49.5 -50q55 -4 71 -44q-25 -5 -47.5 -26t-28.5 -47l-14 -65q15 6 32 6q28 0 43 -19t9 -46t-25.5 -47
t-54.5 -20q-29 0 -44 18.5t-8 49.5l26 122q11 54 69 79q-35 15 -77 11q21 56 68.5 92.5t102.5 36.5q62 0 89 -34t14 -97l-40 -189q-12 -56 50 -56q61 0 73 56l61 287q8 38 29 60l28 -18q-14 -12 -24 -55z" />
    <glyph glyph-name="uni0E0E" unicode="&#xe0e;" horiz-adv-x="425" 
d="M280 -215h-40q-3 24 -35.5 48t-60.5 32l-2 -7q-6 -32 -30 -54.5t-56 -22.5q-30 0 -43 17.5t-8 43.5q7 31 32.5 49t56.5 18q5 0 26 -3q11 37 48 56l24 -16q-34 -19 -41 -48q74 -28 103 -67l91 429q10 49 -14 78.5t-72 29.5q-34 0 -70 -19.5t-54 -49.5q52 -5 72 -44
q-58 -18 -70 -73q-8 -39 -8 -80q0 -18 -5 -42q-6 -29 -29.5 -48.5t-50.5 -19.5t-41.5 19t-8.5 46q5 27 28 46.5t50 19.5q11 0 23 -5q3 46 8 70q10 46 56 72q-25 12 -51 12q-13 0 -19 -1q17 56 68.5 92.5t109.5 36.5q64 0 96 -36.5t19 -99.5zM110 -127q-9 3 -21 3
q-45 0 -52 -32q-6 -31 27 -31q35 0 44 45q2 7 2 15zM92 57q3 14 -5 24t-22 10t-25.5 -10t-14.5 -24t4.5 -23.5t21.5 -9.5t26 9.5t15 23.5z" />
    <glyph glyph-name="uni0E0F" unicode="&#xe0f;" horiz-adv-x="425" 
d="M75 -134q-7 9 -28 9q-39 0 -46 -34q-6 -30 25 -30q37 0 49 55zM280 -215h-40l-41 61l-57 -60l-42 60q-8 -31 -30.5 -48.5t-47.5 -17.5q-30 0 -43 18t-7 44q6 29 28.5 46.5t50.5 17.5q19 0 31 -7q9 35 53 58l24 -16q-39 -21 -48 -56l38 -52l60 63l45 -65l91 429
q10 49 -14 78.5t-72 29.5q-34 0 -70 -19.5t-54 -49.5q52 -5 72 -44q-58 -18 -70 -73q-8 -39 -8 -80q0 -18 -5 -42q-6 -29 -29.5 -48.5t-50.5 -19.5t-41.5 19t-8.5 46q5 27 28 46.5t50 19.5q11 0 23 -5q3 46 8 70q10 46 56 72q-25 12 -51 12q-13 0 -19 -1q17 56 68.5 92.5
t109.5 36.5q64 0 96 -36.5t19 -99.5zM92 57q3 14 -5 24t-22 10t-25.5 -10t-14.5 -24t4.5 -23.5t21.5 -9.5t26 9.5t15 23.5z" />
    <glyph glyph-name="uni0E10" unicode="&#xe10;" horiz-adv-x="343" 
d="M256 79q-18 -88 -98 -88q-79 0 -61 88l11 51q-12 -4 -26 -4q-25 0 -38.5 16.5t-7.5 41.5q5 26 26 43.5t46 17.5q26 0 40 -15.5t8 -43.5l-23 -110q-11 -52 32 -52q44 0 55 52l30 145q6 24 -86 48q-55 15 -119 24q13 46 51.5 76.5t91.5 30.5q21 0 54 -11t52 -11q35 0 50 49
l29 -7q-27 -79 -85 -79q-22 0 -58 12t-56 12q-23 0 -47.5 -13.5t-29.5 -31.5q95 -20 134 -36q64 -25 56 -60zM221 -100l-24 -116h-39l-38 27l-49 -26l-34 55q-6 -28 -28 -44t-48 -16q-64 1 -52 57q5 24 27.5 37t49.5 13q22 0 33 -5q15 41 57 61l24 -15q-45 -20 -54 -59
l33 -51l47 22l42 -30l10 45q-6 -1 -17 -1q-21 0 -33 13.5t-8 32.5t22 32.5t39 13.5q20 0 32.5 -12.5t7.5 -33.5zM9 -147q-8 7 -31 7q-34 -2 -39 -26q-5 -26 26 -26q37 0 43 32q2 5 1 13zM195 -100q5 22 -19 22t-29 -22q-5 -23 19 -23t29 23zM122 185q2 11 -4 19t-17 8
t-20.5 -8t-11.5 -19q-3 -11 3 -18.5t17 -7.5t20.5 7.5t12.5 18.5z" />
    <glyph glyph-name="uni0E11" unicode="&#xe11;" horiz-adv-x="461" 
d="M369 34q-12 -47 -48 -71l-28 18q34 26 43 66l58 273q9 45 -20 45q-11 0 -29 -26l-199 -339h-45l31 146q6 32 43.5 80.5t44.5 79.5q11 54 -20 60l-44 -42l-27 41q-37 -22 -55 -58q15 6 33 6q29 0 42 -18.5t7 -46.5q-6 -29 -28.5 -47t-49.5 -18q-34 0 -46 28q-10 25 -3 61
q9 43 42.5 82t76.5 47l17 -35l35 35q71 -9 52 -98q-7 -31 -43 -82t-43 -83l-22 -85q20 42 40 75l128 216q33 56 73 56q62 0 45 -80zM124 249q3 14 -4 23t-21 9t-25 -9t-14 -23t4.5 -23t21.5 -9t24.5 9t13.5 23z" />
    <glyph glyph-name="uni0E12" unicode="&#xe12;" horiz-adv-x="532" 
d="M433 0h-36q-17 43 -66 71q0 -6 -1 -14q-6 -26 -28 -45.5t-52 -19.5t-44 19.5t-8 46.5q5 26 26.5 45t47.5 21l29 136q15 72 -25 102l-76 -58l-46 59q-27 -15 -47.5 -45t-27.5 -60q-6 -29 3 -83.5t3 -88.5q11 17 38 39q31 24 43 37q-24 3 -35 19.5t-7 39.5q6 25 26.5 42
t45.5 17t39 -17.5t7 -41.5q-11 -46 -87 -110.5t-88 -110.5h-36l19 91q6 30 -3.5 82.5t-4.5 80.5q11 49 42 89q36 44 83 56l42 -57l67 58q42 -8 57 -48t5 -88l-31 -145q76 -28 101 -67l67 315q8 38 29 60l28 -18q-14 -12 -24 -55zM215 222q3 14 -4.5 23t-21.5 9t-24 -9
t-13 -23t3.5 -22.5t20.5 -8.5t25 8.5t14 22.5zM297 57q3 14 -5 24t-22 10t-25.5 -10t-14.5 -24t4.5 -23.5t21.5 -9.5t26 9.5t15 23.5z" />
    <glyph glyph-name="uni0E13" unicode="&#xe13;" horiz-adv-x="543" 
d="M126 57q3 14 -5 24t-22 10t-25.5 -10t-14.5 -24t4.5 -23.5t21.5 -9.5t26 9.5t15 23.5zM443 56q3 14 -4.5 24t-21.5 10t-26.5 -10t-15.5 -24t5 -24t22 -10t26 10t15 24zM476 56q-6 -28 -29 -47t-52 -19q-28 0 -43 19t-9 47l2 6q-39 -14 -77 -62h-43l56 265q22 103 -75 103
q-32 0 -63.5 -19t-49.5 -50q55 -4 71 -44q-25 -5 -47.5 -26t-28.5 -47l-14 -65q15 6 32 6q28 0 43 -19t9 -46q-6 -29 -28.5 -48t-51.5 -19t-43.5 19.5t-8.5 48.5l26 122q11 54 69 79q-35 15 -77 11q21 56 68.5 92.5t102.5 36.5q62 0 89 -34t14 -97l-47 -221q29 30 74 49
q54 24 65 31q29 22 39 67l37 172q8 38 29 60l28 -18q-14 -12 -24 -55l-34 -157q-12 -60 -35 -79q36 -17 26 -62z" />
    <glyph glyph-name="uni0E14" unicode="&#xe14;" horiz-adv-x="391" 
d="M226 245q2 13 -5 22t-20 9t-24 -9t-13 -22q-3 -13 4 -22t20 -9t24 9t14 22zM299 34q-12 -47 -48 -71l-28 18q34 26 43 66l45 213q23 108 -92 108q-46 0 -88 -31.5t-51 -77.5q-7 -29 -1.5 -78.5t0.5 -76.5q-5 -20 -8 -27q17 26 53 58q29 25 58 51q-25 0 -38.5 17t-7.5 42
q5 25 25.5 42t45.5 17t38.5 -17t8.5 -42q-11 -48 -97 -122t-99 -123h-36l19 90q6 29 1 82.5t0 81.5q15 68 68.5 107t120.5 39q69 0 99.5 -36.5t17.5 -98.5z" />
    <glyph glyph-name="uni0E15" unicode="&#xe15;" horiz-adv-x="391" 
d="M299 34q-12 -47 -48 -71l-28 18q34 26 43 66l45 213q15 74 -26 103q-26 -20 -77 -59l-55 59q-57 -32 -72 -104q-7 -31 -2.5 -85.5t-4.5 -94.5q15 20 50.5 45t48.5 40q-22 2 -34 18t-7 40q5 25 25 42t45 17t38.5 -17t8.5 -42q-10 -46 -93.5 -110t-96.5 -112h-36l19 90
q6 29 0.5 82.5t-0.5 81.5q11 49 41 89q36 45 84 57l50 -55l69 55q42 -8 58 -51q14 -37 4 -84zM223 223q3 13 -4.5 22t-20.5 9t-23.5 -9t-13.5 -22t4 -22t20 -9t24 9t14 22z" />
    <glyph glyph-name="uni0E16" unicode="&#xe16;" horiz-adv-x="378" 
d="M123 57q3 14 -5 24t-22 10t-25.5 -10t-14.5 -24t4.5 -23.5t21.5 -9.5t26 9.5t15 23.5zM286 34q-12 -47 -48 -71l-28 18q34 26 43 66l45 214q11 51 -13 79t-73 28q-34 0 -69.5 -19.5t-53.5 -49.5q60 -5 70 -43q-24 -5 -46.5 -26.5t-28.5 -46.5l-13 -65q17 7 31 7
q28 0 43.5 -19.5t9.5 -47.5q-7 -30 -29.5 -48t-51.5 -18q-28 0 -43 19t-9 47l26 124q12 54 68 79q-25 11 -76 11q20 55 72 91.5t109 36.5q64 0 95.5 -36t18.5 -99z" />
    <glyph glyph-name="uni0E17" unicode="&#xe17;" horiz-adv-x="430" 
d="M338 34q-12 -47 -48 -71l-28 18q34 26 43 65l58 274q9 45 -20 45q-18 0 -36 -26l-199 -339h-38l58 275q-15 -7 -32 -7q-27 0 -42 19.5t-10 46.5q6 27 30 46.5t51 19.5t42 -19.5t9 -46.5l-41 -196q-12 -46 -19 -66q10 20 30 56l127 216q33 56 81 56q62 0 45 -80zM144 334
q3 14 -4.5 24t-21.5 10t-26.5 -10t-15.5 -24q-2 -14 5.5 -24t21.5 -10t26.5 10t14.5 24z" />
    <glyph glyph-name="uni0E18" unicode="&#xe18;" horiz-adv-x="335" 
d="M250 76q-18 -83 -128 -83t-92 83l23 108q8 38 29 60l28 -18q-14 -12 -24 -55l-21 -97q-10 -49 64 -49t84 49l32 148q5 24 -87 48q-56 15 -119 24q13 45 49 75.5t87 30.5q23 0 57.5 -11t52.5 -11q19 0 41 49l26 -8q-24 -74 -73 -74q-21 0 -57 11.5t-56 11.5
q-21 0 -44.5 -14t-30.5 -33q103 -22 126 -30q73 -26 64 -66z" />
    <glyph glyph-name="uni0E19" unicode="&#xe19;" horiz-adv-x="420" 
d="M144 334q3 14 -4.5 24t-21.5 10t-26.5 -10t-15.5 -24q-2 -14 5.5 -24t21.5 -10t26.5 10t14.5 24zM321 58q3 14 -5 24t-22 10t-26 -10t-15 -24t5 -24t22 -10t26 10t15 24zM353 57q-6 -27 -29.5 -46t-50.5 -19t-42 19t-9 46l1 7q-67 -25 -109 -64h-44l58 275q-15 -7 -32 -7
q-27 0 -42 19.5t-10 46.5q6 27 30 46.5t51 19.5t42 -19.5t9 -46.5l-62 -295q24 22 80 45q63 26 83 40q40 27 49 69l37 174q8 38 29 60l28 -18q-14 -12 -24 -55l-36 -166q-10 -48 -36 -70q38 -17 29 -61z" />
    <glyph glyph-name="uni0E1A" unicode="&#xe1a;" horiz-adv-x="428" 
d="M144 334q3 14 -4.5 24t-21.5 10t-26.5 -10t-15.5 -24q-2 -14 5.5 -24t21.5 -10t26.5 10t14.5 24zM347 85q-20 -93 -149 -93q-130 0 -110 93l40 190q-15 -7 -32 -7q-27 0 -42 19.5t-10 46.5q6 27 30 46.5t51 19.5t42 -19.5t9 -46.5l-52 -246q-13 -63 81 -63q93 0 106 63
l60 279q8 38 29 60l28 -18q-14 -12 -24 -55z" />
    <glyph glyph-name="uni0E1B" unicode="&#xe1b;" horiz-adv-x="428" 
d="M347 85q-20 -93 -149 -93q-130 0 -110 93l40 190q-15 -7 -32 -7q-27 0 -42 19.5t-10 46.5q6 27 30 46.5t51 19.5t42 -19.5t9 -46.5l-52 -246q-13 -63 81 -63q93 0 106 63l91 429q8 38 29 60l28 -18q-14 -12 -24 -55zM144 334q3 14 -4.5 24t-21.5 10t-26.5 -10t-15.5 -24
q-2 -14 5.5 -24t21.5 -10t26.5 10t14.5 24z" />
    <glyph glyph-name="uni0E1C" unicode="&#xe1c;" horiz-adv-x="381" 
d="M282 0h-40l-70 158l-135 -158h-40l70 334q6 27 28.5 46.5t52.5 19.5q27 0 42 -19.5t9 -46.5q-5 -27 -26 -46.5t-54 -19.5q-14 0 -28 7l-47 -221l122 142h27l64 -142l67 313q8 38 29 60l28 -18q-14 -12 -24 -55zM168 334q3 14 -4.5 24t-21.5 10t-26.5 -10t-15.5 -24
q-2 -14 5.5 -24t21.5 -10t26.5 10t14.5 24z" />
    <glyph glyph-name="uni0E1D" unicode="&#xe1d;" horiz-adv-x="381" 
d="M282 0h-40l-70 158l-135 -158h-40l70 334q6 27 28.5 46.5t52.5 19.5q27 0 42 -19.5t9 -46.5q-5 -27 -26 -46.5t-54 -19.5q-14 0 -28 7l-47 -221l122 142h27l64 -142l98 463q8 38 29 60l28 -18q-14 -12 -24 -55zM168 334q3 14 -4.5 24t-21.5 10t-26.5 -10t-15.5 -24
q-2 -14 5.5 -24t21.5 -10t26.5 10t14.5 24z" />
    <glyph glyph-name="uni0E1E" unicode="&#xe1e;" horiz-adv-x="447" 
d="M144 334q3 14 -4.5 24t-21.5 10t-26.5 -10t-15.5 -24q-2 -14 5.5 -24t21.5 -10t26.5 10t14.5 24zM348 0h-44l-22 347l-168 -347h-44l58 275q-15 -7 -32 -7q-27 0 -42 19.5t-10 46.5q6 27 30 46.5t51 19.5t42 -19.5t9 -46.5l-44 -209q-5 -25 -20 -70q14 33 34 73l129 264
h34l17 -264q2 -40 2 -73q5 45 10 70l52 242q8 38 29 60l28 -18q-14 -12 -24 -55z" />
    <glyph glyph-name="uni0E1F" unicode="&#xe1f;" horiz-adv-x="447" 
d="M348 0h-44l-22 347l-168 -347h-44l58 275q-15 -7 -32 -7q-27 0 -42 19.5t-10 46.5q6 27 30 46.5t51 19.5t42 -19.5t9 -46.5l-44 -209q-5 -25 -20 -70q14 33 34 73l129 264h34l17 -264q2 -40 2 -73q5 45 10 70l83 393q8 37 29 59l28 -18q-14 -12 -24 -55zM144 334
q3 14 -4.5 24t-21.5 10t-26.5 -10t-15.5 -24q-2 -14 5.5 -24t21.5 -10t26.5 10t14.5 24z" />
    <glyph glyph-name="uni0E20" unicode="&#xe20;" horiz-adv-x="425" 
d="M92 57q3 14 -5 24t-22 10t-25.5 -10t-14.5 -24t4.5 -23.5t21.5 -9.5t26 9.5t15 23.5zM333 33q-12 -47 -48 -71l-28 18q34 26 43 66l45 214q10 49 -14 78.5t-72 29.5q-34 0 -70 -19.5t-54 -49.5q52 -5 72 -44q-58 -18 -70 -73q-8 -39 -8 -80q0 -18 -5 -42
q-6 -29 -27.5 -48.5t-52.5 -19.5q-27 0 -41.5 19t-8.5 46q5 27 28 46.5t50 19.5q11 0 23 -5q3 46 8 70q10 46 56 72q-25 12 -51 12q-13 0 -19 -1q17 56 68.5 92.5t109.5 36.5q64 0 96 -36.5t19 -99.5z" />
    <glyph glyph-name="uni0E21" unicode="&#xe21;" horiz-adv-x="400" 
d="M99 62q3 15 -5.5 26t-23.5 11t-28.5 -11t-16.5 -26q-4 -15 5 -26t24 -11t28 11t17 26zM144 334q3 14 -4.5 24t-21.5 10t-26.5 -10t-15.5 -24q-2 -14 5.5 -24t21.5 -10t26.5 10t14.5 24zM301 0h-39q-66 60 -130 79q1 -9 -1 -18q-6 -29 -30.5 -49t-53.5 -20t-44.5 20
t-9.5 49q7 29 30.5 49.5t52.5 20.5q11 0 21 -3l31 147q-15 -7 -32 -7q-27 0 -42 19.5t-10 46.5q6 27 30 46.5t51 19.5t42 -19.5t9 -46.5l-45 -216q91 -35 141 -81l71 330q8 38 29 60l28 -18q-14 -12 -24 -55z" />
    <glyph glyph-name="uni0E22" unicode="&#xe22;" horiz-adv-x="375" 
d="M187 343q3 14 -4 23t-21 9t-24.5 -9t-13.5 -23t4 -22.5t21 -8.5t24.5 8.5t13.5 22.5zM294 89q-20 -97 -155 -97q-136 0 -116 97l11 51q5 23 23 44t40 29q-48 23 -32 99q8 39 36 63.5t68 24.5q25 0 37 -17t7 -40q-4 -23 -22.5 -39.5t-45.5 -16.5q-37 0 -45 33
q-3 -7 -5 -16q-6 -28 6.5 -51t40.5 -23h57l-7 -34h-58q-22 0 -40.5 -16t-23.5 -42l-10 -46q-14 -67 86 -67q99 0 113 67l59 275q8 38 29 60l28 -18q-14 -12 -24 -55z" />
    <glyph glyph-name="uni0E23" unicode="&#xe23;" horiz-adv-x="322" 
d="M223 58q-6 -27 -28 -46.5t-52 -19.5q-27 0 -42.5 19.5t-9.5 46.5t29.5 46.5t50.5 19.5q17 0 28 -7l23 105q8 41 -178 72q29 106 120 106q21 0 57 -10.5t53 -10.5q21 0 42 48l25 -8q-24 -73 -75 -73q-21 0 -58 11t-57 11q-18 0 -37 -15.5t-23 -31.5q61 -11 118.5 -33
t48.5 -63zM191 58q3 14 -5 24t-22 10t-26 -10t-15 -24t5 -24t22 -10t26 10t15 24z" />
    <glyph glyph-name="uni0E24" unicode="&#xe24;" horiz-adv-x="378" 
d="M244 -162q-12 -47 -48 -71l-28 18q34 26 43 66l87 410q11 51 -13 79t-73 28q-34 0 -69.5 -19.5t-53.5 -49.5q60 -5 70 -43q-24 -5 -46.5 -26.5t-28.5 -46.5l-13 -65q17 7 31 7q28 0 43.5 -19.5t9.5 -47.5t-29.5 -47t-51.5 -19t-43 19t-9 47l26 124q12 54 68 79
q-25 11 -76 11q20 55 72 91.5t109 36.5q64 0 95.5 -36t18.5 -99zM123 57q3 14 -5 24t-22 10t-25.5 -10t-14.5 -24t4.5 -23.5t21.5 -9.5t26 9.5t15 23.5z" />
    <glyph glyph-name="uni0E25" unicode="&#xe25;" horiz-adv-x="381" 
d="M291 42q-8 -37 -29 -60l-28 18q14 12 26 54q5 21 5 46q-2 54 -28 101q-20 35 -49 56q-18 0 -64 -39.5t-59 -100.5q15 7 35 7q24 0 39 -15t15 -37q0 -31 -26 -55.5t-56 -24.5q-55 0 -55 67q1 76 56 149.5t126 81.5q31 -20 50 -48t26 -49q5 -16 9 -47l4 51l21 108
q0 28 -36 47q-30 16 -60 16q-44 0 -81 -18q-41 -20 -57 -54h-35q19 49 74 78q48 26 104 26q48 0 85 -21q43 -24 43 -75zM120 64q0 27 -28 27q-17 0 -29 -13t-12 -29q0 -25 27 -25q17 0 29.5 12t12.5 28z" />
    <glyph glyph-name="uni0E26" unicode="&#xe26;" horiz-adv-x="425" 
d="M291 -162q-12 -47 -48 -71l-28 18q34 26 43 66l87 409q10 49 -14 78.5t-72 29.5q-34 0 -70 -19.5t-54 -49.5q52 -5 72 -44q-58 -18 -70 -73q-8 -39 -8 -80q0 -18 -5 -42q-6 -29 -29.5 -48.5t-50.5 -19.5t-41.5 19t-8.5 46q5 27 28 46.5t50 19.5q11 0 23 -5q3 46 8 70
q10 46 56 72q-25 12 -51 12q-13 0 -19 -1q17 56 68.5 92.5t109.5 36.5q64 0 96 -36.5t19 -99.5zM92 57q3 14 -5 24t-22 10t-25.5 -10t-14.5 -24t4.5 -23.5t21.5 -9.5t26 9.5t15 23.5z" />
    <glyph glyph-name="uni0E27" unicode="&#xe27;" horiz-adv-x="335" 
d="M248 58q-6 -27 -29.5 -46.5t-50.5 -19.5t-42.5 19.5t-9.5 46.5t29.5 46.5t50.5 19.5q17 0 28 -7l35 162q19 89 -80 89q-78 0 -113 -72h-37q45 104 159 104q57 0 88.5 -30t19.5 -85zM216 58q3 14 -5 24t-22 10t-26 -10t-15 -24t5 -24t22 -10t26 10t15 24z" />
    <glyph glyph-name="uni0E28" unicode="&#xe28;" horiz-adv-x="393" 
d="M232 246q3 13 -4.5 22t-20.5 9t-23.5 -9t-13.5 -22t4 -22t20 -9t24 9t14 22zM301 34q-12 -47 -48 -71l-28 18q34 26 43 66l47 222q10 48 -20 73.5t-75 25.5q-46 0 -87.5 -31.5t-50.5 -77.5q-5 -22 -4 -53q2 -44 2 -50q21 57 51 97q40 52 84 52q25 0 38 -16t7 -43
q-6 -25 -26.5 -42.5t-45.5 -17.5q-26 0 -41 24q-18 -21 -41 -60q-27 -48 -35 -85l-13 -65h-36l19 92q6 29 1.5 82t1.5 81q14 65 66.5 105t118.5 40q50 0 84 -22q34 37 88 49l18 -25q-26 -5 -46.5 -15t-37.5 -27q28 -32 16 -88z" />
    <glyph glyph-name="uni0E29" unicode="&#xe29;" horiz-adv-x="438" 
d="M450 239q-19 -27 -74 -64l-19 -90q-20 -93 -154 -93q-135 0 -115 93l40 190q-15 -7 -32 -7q-27 0 -42 19.5t-10 46.5q6 27 30 46.5t51 19.5t42 -19.5t9 -46.5l-52 -246q-13 -63 85 -63q99 0 112 63l16 73q-32 -7 -51 -7q-46 0 -74.5 25t-20.5 61q4 23 23.5 38.5
t41.5 15.5q23 0 35.5 -15.5t8.5 -38.5q-8 -35 -46 -51q10 -7 38 -7q27 0 51 10l38 175q8 38 29 60l28 -18q-14 -12 -24 -55l-30 -142q27 18 48 46zM273 240q2 11 -5 19.5t-18 8.5t-20.5 -8.5t-11.5 -19.5q-3 -11 3.5 -19t17.5 -8t21 8t13 19zM144 334q3 14 -4.5 24t-21.5 10
t-26.5 -10t-15.5 -24q-2 -14 5.5 -24t21.5 -10t26.5 10t14.5 24z" />
    <glyph glyph-name="uni0E2A" unicode="&#xe2a;" horiz-adv-x="381" 
d="M291 42q-8 -37 -29 -60l-28 18q14 12 26 54q5 21 5 46q-2 54 -28 101q-20 35 -49 56q-18 0 -64 -39.5t-59 -100.5q15 7 35 7q24 0 39 -15t15 -37q0 -31 -26 -55.5t-56 -24.5q-55 0 -55 67q1 76 56 149.5t126 81.5q31 -20 50 -48t26 -49q5 -16 9 -47l4 51l21 108
q0 28 -36 47q-30 16 -60 16q-44 0 -81 -18q-41 -20 -57 -54h-35q19 49 74 78q48 26 104 26q54 0 91 -26q37 41 92 53l18 -25q-56 -11 -90 -49q18 -22 16 -54zM120 64q0 27 -28 27q-17 0 -29 -13t-12 -29q0 -25 27 -25q17 0 29.5 12t12.5 28z" />
    <glyph glyph-name="uni0E2B" unicode="&#xe2b;" horiz-adv-x="427" 
d="M335 34q-12 -47 -48 -71l-28 18q34 26 43 66l35 169q10 46 -14 46q-15 0 -43 -35l-177 -227h-33l58 275q-15 -7 -32 -7q-27 0 -42 19.5t-10 46.5q6 27 30 46.5t51 19.5t42 -19.5t9 -46.5l-46 -217q-2 -9 -18 -62q18 25 32 44l112 149q20 25 41 35q-20 19 -14 51
q6 27 30 46.5t51 19.5t42 -19.5t9 -46.5q-8 -38 -45 -57q13 -17 3 -61zM144 334q3 14 -4.5 24t-21.5 10t-26.5 -10t-15.5 -24q-2 -14 5.5 -24t21.5 -10t26.5 10t14.5 24zM382 334q3 14 -4.5 24t-21.5 10t-26.5 -10t-15.5 -24q-2 -14 5.5 -24t21.5 -10t26.5 10t14.5 24z" />
    <glyph glyph-name="uni0E2C" unicode="&#xe2c;" horiz-adv-x="454" 
d="M144 334q3 14 -4.5 24t-21.5 10t-26.5 -10t-15.5 -24q-2 -14 5.5 -24t21.5 -10t26.5 10t14.5 24zM393 334q3 14 -4.5 24t-21.5 10t-26.5 -10t-15.5 -24q-2 -14 5.5 -24t21.5 -10t26.5 10t14.5 24zM355 0h-44l-59 195l-141 -195h-41l58 275q-15 -7 -32 -7q-27 0 -42 19.5
t-10 46.5q6 27 30 46.5t51 19.5t42 -19.5t9 -46.5l-50 -236q-3 -16 -13 -49q10 17 26 43l104 140h34l44 -140q2 -7 10 -43q5 32 8 49l38 177q-15 -7 -32 -7q-27 0 -42 19.5t-10 46.5q6 27 30 46.5t51 19.5q21 0 30 -12q25 27 80 39l18 -25q-56 -11 -78 -35q5 -18 1 -33z" />
    <glyph glyph-name="uni0E2D" unicode="&#xe2d;" horiz-adv-x="387" 
d="M166 208q3 14 -5 24t-22 10t-26 -10t-15 -24t4.5 -24t21.5 -10t26.5 10t15.5 24zM306 85q-22 -93 -154 -93t-112 93l26 123q5 27 29 46.5t51 19.5t42 -19.5t10 -46.5q-6 -27 -28 -46.5t-52 -19.5q-17 0 -29 7l-12 -56q-14 -68 84 -68q96 0 110 68l40 186q9 42 -21 67
q-27 22 -74 22q-41 0 -79 -19q-42 -21 -56 -53h-36q20 47 69 75.5t111 28.5q59 0 94 -28q41 -32 29 -87z" />
    <glyph glyph-name="uni0E2E" unicode="&#xe2e;" horiz-adv-x="372" 
d="M291 89q-20 -97 -153 -97q-135 0 -115 97l20 93q6 27 29.5 46.5t50.5 19.5t42.5 -19.5t9.5 -46.5t-27 -46.5t-53 -19.5q-17 0 -28 7l-7 -30q-14 -68 85 -68q97 0 111 69l44 203q3 13 -3 23q-47 -52 -136 -52q-111 0 -98 60q8 38 63 58q41 15 89 15q59 0 92 -29
q27 40 79 55l18 -25q-53 -14 -79 -53q15 -31 8 -66zM282 347q-26 23 -75 23q-35 0 -66 -10q-38 -12 -42 -32q-6 -28 71 -28q75 0 112 47zM143 182q3 14 -5 24t-22 10t-26 -10t-15 -24t5 -24t22 -10t26 10t15 24z" />
    <glyph glyph-name="uni0E2F" unicode="&#xe2f;" horiz-adv-x="391" 
d="M297 34q-12 -47 -48 -71l-28 18q34 26 43 66l59 280q7 31 -24 33q-56 -98 -137 -98q-47 0 -67 20.5t-13 53.5q5 26 28.5 45t49.5 19t40.5 -19t9.5 -45q-5 -22 -22 -39q59 19 89 95h36q60 0 47 -62zM175 337q3 13 -3.5 21.5t-19.5 8.5t-23 -8.5t-13 -21.5t3.5 -21t19.5 -8
t23 8t13 21z" />
    <glyph glyph-name="uni0E30" unicode="&#xe30;" horiz-adv-x="357" 
d="M341 382q-17 -68 -65 -111.5t-110 -43.5q-51 0 -82 19q-39 23 -30 69q6 26 29 45t49 19t41 -19t9 -45q-7 -34 -40 -53q15 -4 24 -4q55 2 90 35.5t49 88.5h36zM148 315q3 14 -4 23t-21 9t-24.5 -9t-13.5 -23t4 -22.5t21 -8.5t24.5 8.5t13.5 22.5zM296 170
q-17 -68 -65 -111.5t-110 -43.5q-51 0 -82 19q-39 23 -30 69q6 26 29 45t49 19t41 -19t9 -45q-7 -34 -40 -53q15 -4 24 -4q55 2 90 35.5t49 88.5h36zM103 103q3 14 -4 23t-21 9t-24.5 -9t-13.5 -23t4 -22.5t21 -8.5t24.5 8.5t13.5 22.5z" />
    <glyph glyph-name="uni0E31" unicode="&#xe31;" 
d="M137 619q-15 -68 -68.5 -111.5t-119.5 -43.5q-58 0 -88 24t-21 63q5 26 28 45t49 19t41 -18.5t10 -44.5q-7 -34 -42 -54q14 -3 37 -3q48 1 88 39q35 35 48 85h38zM-64 553q3 14 -4.5 23.5t-20.5 9.5t-25 -9.5t-15 -23.5t5 -23t21 -9t24.5 9t14.5 23z" />
    <glyph glyph-name="uni0E32" unicode="&#xe32;" horiz-adv-x="316" 
d="M224 34q-12 -47 -48 -71l-28 18q34 26 43 66l53 252q6 30 -12 49.5t-57 19.5q-35 0 -61 -23.5t-34 -50.5h-37q10 42 49.5 74t90.5 32q58 0 82.5 -28t14.5 -74z" />
    <glyph glyph-name="uni0E33" unicode="&#xe33;" horiz-adv-x="316" 
d="M62 538q-7 -32 -33.5 -54t-57.5 -22q-32 0 -50 22t-11 54t34 54.5t58 22.5q32 0 49.5 -22.5t10.5 -54.5zM29 538q4 18 -6.5 31t-26.5 13q-18 0 -33.5 -13t-19.5 -31t6.5 -30.5t28.5 -12.5q17 0 32 12.5t19 30.5zM224 34q-12 -47 -48 -71l-28 18q34 26 43 66l53 252
q6 30 -12 49.5t-57 19.5q-35 0 -61 -23.5t-34 -50.5h-37q10 42 49.5 74t90.5 32q58 0 82.5 -28t14.5 -74z" />
    <glyph glyph-name="uni0E34" unicode="&#xe34;" 
d="M3 455q-105 41 -206 41q-36 0 -80 -6q12 52 61 84q44 29 97 29q134 0 128 -148zM-27 493q-26 81 -103 81q-70 0 -106 -53q22 3 48 3q96 0 161 -31z" />
    <glyph glyph-name="uni0E35" unicode="&#xe35;" 
d="M3 455q-105 41 -206 41q-36 0 -80 -6q12 52 61 84q44 29 97 29q80 0 110 -53l20 97h33l-35 -165q1 -13 0 -27zM-27 493q-26 81 -103 81q-70 0 -106 -53q22 3 48 3q96 0 161 -31z" />
    <glyph glyph-name="uni0E36" unicode="&#xe36;" 
d="M3 455q-105 41 -206 41q-36 0 -80 -6q12 52 61 84q44 29 97 29q54 0 87 -26q-1 8 1 16q4 20 21 34.5t37 14.5t31.5 -14.5t7.5 -34.5q-5 -20 -22.5 -34.5t-37.5 -14.5q-4 0 -11 2q16 -35 14 -91zM-27 493q-26 81 -103 81q-70 0 -106 -53q22 3 48 3q96 0 161 -31zM37 593
q2 11 -4 18.5t-17 7.5t-19.5 -7.5t-10.5 -18.5q-3 -11 3 -18.5t16 -7.5q11 0 20 7.5t12 18.5z" />
    <glyph glyph-name="uni0E37" unicode="&#xe37;" 
d="M-27 493q-26 81 -103 81q-70 0 -106 -53q22 3 48 3q96 0 161 -31zM3 455q-105 41 -206 41q-36 0 -80 -6q12 52 61 84q44 29 97 29q23 0 41 -4l10 48h33l-13 -60q26 -13 39 -37l20 97h33l-35 -165q1 -13 0 -27z" />
    <glyph glyph-name="uni0E38" unicode="&#xe38;" 
d="M-149 -110q3 11 -3 18.5t-17 7.5t-20 -7.5t-12 -18.5q-2 -11 4 -18.5t17 -7.5t20 7.5t11 18.5zM-141 -200q-8 -38 -29 -60l-28 18q16 15 24 51l6 30q-8 -3 -18 -3q-22 0 -34.5 15.5t-7.5 37.5t23.5 37.5t40.5 15.5t34.5 -15.5t7.5 -37.5z" />
    <glyph glyph-name="uni0E39" unicode="&#xe39;" 
d="M-254 -110q3 11 -3 18.5t-17 7.5t-20 -7.5t-12 -18.5q-2 -11 4 -18.5t17 -7.5t20 7.5t11 18.5zM-126 -127l-13 -66q-14 -62 -86 -62q-68 0 -55 60l7 34q-8 -3 -18 -3q-22 0 -34.5 15.5t-7.5 37.5t23.5 37.5t40.5 15.5t34.5 -15.5t7.5 -37.5l-19 -90q-5 -23 30 -23
q34 0 39 23l18 87q8 38 29 60l28 -18q-14 -12 -24 -55z" />
    <glyph glyph-name="uni0E3A" unicode="&#xe3a;" 
d="M-126 -96q-3 -11 -12 -19t-20 -8t-17.5 8t-3.5 19q2 11 11.5 18.5t20.5 7.5t17 -7.5t4 -18.5z" />
    <glyph glyph-name="uni0E3F" unicode="&#xe3f;" horiz-adv-x="411" 
d="M323 146q-23 -105 -155 -121l-18 -84h-33l17 81h-16q-37 0 -80 9l87 410q59 13 94 13h7l15 69h33l-15 -71q108 -15 89 -106q-14 -67 -84 -95q29 -11 46 -36q21 -30 13 -69zM286 145q10 45 -23 69q-30 20 -85 20h-59l-37 -175q18 -5 51 -5q54 0 94 20q49 24 59 71z
M311 345q9 41 -25 61q-28 16 -74 16q-20 0 -54 -7l-32 -148h70q46 0 77 22.5t38 55.5z" />
    <glyph glyph-name="uni0E40" unicode="&#xe40;" horiz-adv-x="203" 
d="M125 62q3 14 -5 24t-22 10t-26 -10t-15 -24t4.5 -24t21.5 -10t26.5 10t15.5 24zM158 62q-6 -28 -30 -48t-52 -20q-31 0 -46 22q-13 19 -7 46l65 305q8 38 29 60l28 -18q-14 -12 -23 -51l-51 -237q16 8 34 8q28 0 43.5 -19.5t9.5 -47.5z" />
    <glyph glyph-name="uni0E41" unicode="&#xe41;" horiz-adv-x="377" 
d="M125 62q3 14 -5 24t-22 10t-26 -10t-15 -24t4.5 -24t21.5 -10t26.5 10t15.5 24zM158 62q-6 -28 -30 -48t-52 -20q-31 0 -46 22q-13 19 -7 46l65 305q8 38 29 60l28 -18q-14 -12 -23 -51l-51 -237q16 8 34 8q28 0 43.5 -19.5t9.5 -47.5zM298 62q3 14 -5 24t-22 10t-26 -10
t-15 -24t4.5 -24t21.5 -10t26.5 10t15.5 24zM331 62q-6 -28 -30 -48t-52 -20q-31 0 -46 22q-13 19 -7 46l65 305q8 38 29 60l28 -18q-14 -12 -23 -51l-51 -237q16 8 34 8q28 0 43.5 -19.5t9.5 -47.5z" />
    <glyph glyph-name="uni0E42" unicode="&#xe42;" horiz-adv-x="237" 
d="M158 60q3 14 -5.5 24t-22.5 10q-13 0 -25 -10t-15 -24t4.5 -24t21.5 -10t26.5 10t15.5 24zM191 60q-6 -28 -30 -48t-52 -20q-32 0 -47 22q-12 19 -7 46l89 416q6 28 -31.5 54t-76.5 27q25 94 112 94q16 0 48.5 -15.5t44.5 -15.5q18 0 28 25l28 -8q-25 -50 -58 -50
q-16 0 -50 16.5t-51 16.5q-44 0 -55 -37q112 -35 96 -111l-75 -353q15 8 33 8q28 0 44 -19.5t10 -47.5z" />
    <glyph glyph-name="uni0E43" unicode="&#xe43;" horiz-adv-x="242" 
d="M196 60q-6 -28 -30 -48t-51 -20q-32 0 -48 22q-12 19 -7 46l87 409q4 17 17 39q32 51 35 63q5 25 -8.5 41t-38.5 16q-37 0 -62 -23q28 4 42.5 -12t9.5 -42q-5 -23 -24.5 -39t-41.5 -16t-35.5 16t-6.5 48q8 41 43 69t84 28q36 0 60 -22.5t16 -57.5q-4 -21 -27.5 -58
t-27.5 -57l-73 -343q15 8 34 8q27 0 43 -19.5t10 -47.5zM163 60q3 14 -5.5 24t-22.5 10q-13 0 -25 -10t-15 -24t4.5 -24t21.5 -10t26.5 10t15.5 24zM115 551q2 11 -3.5 19.5t-18.5 8.5t-22.5 -8.5t-11.5 -19.5q-3 -11 3 -19.5t19 -8.5t22 8.5t12 19.5z" />
    <glyph glyph-name="uni0E44" unicode="&#xe44;" horiz-adv-x="244" 
d="M198 60q-6 -28 -30 -48t-51 -20q-32 0 -48 22q-12 19 -7 46l115 541l-94 -104l-30 12q9 67 10 156h31q-3 -87 -9 -131l108 121q13 -1 20 -12t4 -23l-106 -501q15 8 34 8q27 0 43 -19.5t10 -47.5zM164 60q3 14 -5 24t-22 10t-26 -10t-15 -24t5 -24t22 -10t26 10t15 24z
" />
    <glyph glyph-name="uni0E45" unicode="&#xe45;" horiz-adv-x="205" 
d="M71 -162q-12 -47 -48 -71l-28 18q34 26 43 66l95 448q6 30 -12 49.5t-57 19.5q-35 0 -60.5 -23.5t-33.5 -50.5h-37q10 42 49 74t90 32q58 0 82.5 -28t14.5 -74z" />
    <glyph glyph-name="uni0E46" unicode="&#xe46;" horiz-adv-x="399" 
d="M261 -137q-12 -47 -48 -71l-28 18q34 26 41 62l91 428q11 51 -29 79l-55 -36l-47 37q-46 -18 -61 -62q17 10 33 10q26 0 40.5 -18t8.5 -44q-5 -26 -27 -43.5t-48 -17.5q-31 0 -45.5 23t-9.5 54q19 102 120 131l42 -33l53 33q79 -33 62 -113zM175 266q3 13 -4 21.5
t-20 8.5t-22.5 -8.5t-12.5 -21.5t3.5 -21t19.5 -8t23 8t13 21z" />
    <glyph glyph-name="uni0E47" unicode="&#xe47;" 
d="M11 511q-5 -22 -23 -36t-38 -14q-42 0 -86 43q-29 -9 -61 -44q-34 25 -23 78q16 78 101 78h66q49 0 67 72h34q-9 -43 -37 -72t-71 -29h-69q-48 0 -58 -46q-4 -22 3 -39q31 28 58 32q14 -15 41 -36q1 8 2 13q4 20 20.5 33.5t36.5 13.5t30.5 -14t6.5 -33zM-14 511
q2 9 -3 15.5t-14 6.5t-17 -6.5t-10 -15.5t3 -15.5t14 -6.5t17 6.5t10 15.5z" />
    <glyph glyph-name="uni0E48" unicode="&#xe48;" 
d="M45 680h-33l24 111h33z" />
    <glyph glyph-name="uni0E49" unicode="&#xe49;" 
d="M174 826q-32 -86 -100 -121q-54 -28 -138 -28h-18l4 19q36 14 56 39q-18 0 -29.5 11.5t-11.5 28.5q0 26 20.5 43.5t42.5 17.5q17 0 28 -11.5t11 -29.5q0 -6 -1 -10q-10 -50 -61 -82q120 10 160 123h37zM10 785q2 10 -3 17t-14 7q-10 0 -18.5 -7t-10.5 -17t3.5 -16.5
t15.5 -6.5t17.5 6.5t9.5 16.5z" />
    <glyph glyph-name="uni0E4A" unicode="&#xe4a;" 
d="M-111 725q2 10 -3 17t-15 7t-18.5 -7t-10.5 -17q-3 -10 3 -16.5t16 -6.5t17.5 6.5t10.5 16.5zM99 824q-35 -149 -175 -149l5 22q44 20 53 64q7 34 -23 44l-35 -31l-21 31q-11 -1 -27 -11q-12 -8 -19 -21q5 2 10 3t10 1q21 0 32 -15t7 -36q-5 -21 -22.5 -35.5t-38.5 -14.5
q-26 0 -36.5 17t-3.5 46q7 37 37 65.5t62 28.5l17 -30l29 30q29 -1 42 -20.5t7 -49.5q-8 -36 -34 -59q24 2 47 29q33 34 45 91h32z" />
    <glyph glyph-name="uni0E4B" unicode="&#xe4b;" 
d="M105 719h-53l-8 -39h-31l8 39h-52l6 28h52l9 43h31l-9 -43h53z" />
    <glyph glyph-name="uni0E4C" unicode="&#xe4c;" 
d="M117 807q-10 -32 -42 -46q-18 -9 -48 -15q-28 -5 -37 -13q20 -2 31 -16.5t6 -35.5q-4 -22 -22 -36.5t-39 -14.5q-22 0 -34 14.5t-8 36.5q14 66 85 85l47 13q26 8 30 28h31zM2 680q2 10 -3 18t-15 8q-11 0 -20.5 -8t-11.5 -18t4 -18t17 -8q10 0 18.5 8t10.5 18z" />
    <glyph glyph-name="uni0E4D" unicode="&#xe4d;" 
d="M62 538q-7 -32 -33.5 -54t-57.5 -22q-32 0 -50 22t-11 54t34 54.5t58 22.5q32 0 49.5 -22.5t10.5 -54.5zM29 538q4 18 -6.5 31t-26.5 13q-18 0 -33.5 -13t-19.5 -31t6.5 -30.5t28.5 -12.5q17 0 32 12.5t19 30.5z" />
    <glyph glyph-name="uni0E4E" unicode="&#xe4e;" 
d="M67 664l-15 -25q-16 5 -36 5q-45 0 -51 -31q-7 -33 41 -39l-13 -23q-12 4 -24 4q-28 0 -48 -12.5t-23 -27.5q-6 -27 39 -27q13 0 34 8l-4 -25q-21 -8 -48 -8q-25 0 -40 14.5t-10 38.5q5 25 29 42t49 17q-18 13 -12 38q12 58 88 58q27 0 44 -7z" />
    <glyph glyph-name="uni0E4F" unicode="&#xe4f;" horiz-adv-x="450" 
d="M280 163q6 26 -8.5 45t-41.5 19t-49.5 -19t-28.5 -45q-6 -27 9 -45.5t42 -18.5t49 18.5t28 45.5zM315 163q-9 -41 -44 -70.5t-76 -29.5t-64 29.5t-14 70.5t44 70t76 29t64 -29t14 -70zM350 163q12 56 -18.5 95t-86.5 39t-103.5 -39t-59.5 -95q-12 -57 18 -96t87 -39
q56 0 103.5 39.5t59.5 95.5zM385 163q-15 -71 -75 -120t-130 -49q-71 0 -109.5 49t-23.5 120q15 70 74.5 119.5t130.5 49.5q69 0 108.5 -50t24.5 -119z" />
    <glyph glyph-name="uni0E50" unicode="&#xe50;" horiz-adv-x="449" 
d="M398 144q-13 -64 -73.5 -107.5t-145.5 -43.5t-126 43.5t-28 107.5q14 64 73.5 107.5t144.5 43.5t127 -43.5t28 -107.5zM358 144q11 51 -22 85.5t-100 34.5t-115 -34.5t-59 -85.5t22.5 -85t100.5 -34t114.5 34t58.5 85z" />
    <glyph glyph-name="uni0E51" unicode="&#xe51;" horiz-adv-x="449" 
d="M396 124q-19 -91 -80 -143h-44q67 47 86 136q14 64 -19.5 105t-111.5 41q-59 0 -108.5 -36t-61.5 -94q-10 -48 11.5 -78.5t65.5 -30.5q57 0 92 52q-20 -8 -36 -8q-29 0 -44 18.5t-9 46.5q6 29 31 48t52 19q34 0 48 -23t7 -56q-10 -49 -47 -86q-43 -43 -110 -43
q-58 0 -85 44q-24 40 -12 98q16 75 77.5 117.5t134.5 42.5q96 0 137 -48.5t26 -121.5zM244 133q3 17 -5.5 28t-25.5 11t-30 -11t-16 -28q-4 -17 4.5 -27.5t25.5 -10.5t30 10.5t17 27.5z" />
    <glyph glyph-name="uni0E52" unicode="&#xe52;" horiz-adv-x="449" 
d="M403 146q-34 -158 -213 -158q-193 0 -162 151l54 256q7 29 -19 30l7 35q60 -5 47 -65l-55 -261q-24 -113 136 -113q143 0 168 120q13 61 6 94q-6 27 -23 27q-21 0 -38 -17t-24 -41h-23q4 59 -38 59q-48 0 -65 -48q8 4 26 4q25 0 39.5 -18.5t9.5 -43.5t-28 -43.5
t-47 -18.5q-29 0 -43.5 23t-5.5 63q10 48 41.5 80.5t77.5 32.5q45 0 54 -48q26 48 68 48q35 0 50 -35q15 -39 0 -113zM207 157q3 14 -4.5 23.5t-21.5 9.5q-13 0 -25 -9.5t-15 -23.5q-3 -13 5 -23t21 -10q14 0 25.5 10t14.5 23z" />
    <glyph glyph-name="uni0E53" unicode="&#xe53;" horiz-adv-x="449" 
d="M372 0h-35l39 188q8 34 -3 55t-37 21q-23 0 -46.5 -25t-29.5 -55l-39 -184h-37l39 185q6 30 -13.5 54.5t-48.5 24.5q-37 0 -67 -36q-26 -32 -37 -85q-4 -17 -4 -34q19 21 51 21q27 0 42 -20t9 -47t-29 -46t-55 -19q-38 0 -51.5 37.5t-0.5 98.5q34 160 151 160
q68 0 81 -63q36 63 91 63q42 0 61 -27.5t9 -75.5zM124 64q4 16 -5 27t-25 11t-29 -11t-17 -27q-3 -16 5.5 -27t24.5 -11t29.5 11t16.5 27z" />
    <glyph glyph-name="uni0E54" unicode="&#xe54;" horiz-adv-x="449" 
d="M249 146q3 16 -5 27t-24 11t-29 -11.5t-16 -26.5q-4 -16 4.5 -27t23.5 -11t28.5 11.5t17.5 26.5zM369 -11q-49 24 -84 24q-23 0 -73 -10q-53 -10 -91 -11q-64 -2 -92.5 37.5t-13.5 107.5q16 76 76 117.5t146 41.5q96 0 133 15q70 30 98 103h34q-45 -105 -129 -136
q-42 -15 -144 -15q-148 0 -175 -129q-11 -52 8.5 -82t64.5 -30q58 0 113 15q-114 32 -95 112q7 28 30.5 45.5t50.5 17.5q29 0 43.5 -18.5t8.5 -47.5q-5 -21 -23 -40t-40 -23q22 -18 70 -29q25 -6 57.5 -15.5t50.5 -20.5z" />
    <glyph glyph-name="uni0E55" unicode="&#xe55;" horiz-adv-x="449" 
d="M312 355q3 14 -5.5 24.5t-22.5 10.5t-26 -10.5t-15 -24.5q-3 -13 5.5 -23.5t21.5 -10.5q14 0 26.5 10t15.5 24zM249 146q3 16 -5 27t-24 11t-29 -11.5t-16 -26.5q-4 -16 4.5 -27t23.5 -11t28.5 11.5t17.5 26.5zM369 -11q-49 24 -84 24q-23 0 -73 -10q-53 -10 -91 -11
q-64 -2 -92.5 37.5t-13.5 107.5q16 76 76 117.5t148 41.5q-35 17 -26 59q6 27 29 46t49 19q27 0 42 -19t9 -46q-9 -41 -50 -58q53 4 78 14q70 30 98 103h34q-45 -105 -129 -136q-42 -15 -144 -15q-148 0 -175 -129q-11 -52 8.5 -82t64.5 -30q58 0 113 15q-114 32 -95 112
q7 28 30.5 45.5t50.5 17.5q29 0 43.5 -18.5t8.5 -47.5q-5 -21 -23 -40t-40 -23q22 -18 70 -29q25 -6 57.5 -15.5t50.5 -20.5z" />
    <glyph glyph-name="uni0E56" unicode="&#xe56;" horiz-adv-x="449" 
d="M410 154q-33 -162 -233 -162q-73 0 -106.5 25.5t-24.5 67.5q6 29 29.5 48t51.5 19q29 0 44 -19t9 -48q-9 -38 -44 -57q30 -4 57 -4q76 1 121 31t59 97q10 50 -23.5 80.5t-100.5 30.5q-107 0 -177 -75q27 152 -10 226h43q24 -70 5 -162q62 42 138 42q91 0 133 -35
q43 -38 29 -105zM152 85q3 17 -5.5 28t-25.5 11t-30 -11t-16 -28q-4 -17 4 -27.5t25 -10.5t30.5 10.5t17.5 27.5z" />
    <glyph glyph-name="uni0E57" unicode="&#xe57;" horiz-adv-x="449" 
d="M117 62q4 18 -6 28.5t-25 10.5t-28.5 -11.5t-16.5 -27.5q-3 -14 6 -25.5t23 -11.5q16 0 29.5 11t17.5 26zM480 414q-27 -44 -51 -161q-7 -32 -7 -35q-30 -142 -79 -181t-104 -39h-5q60 101 75 172q20 94 -32 94q-20 0 -40 -25t-26 -55l-10 -47h-38l10 48q6 29 -6.5 54
t-33.5 25q-27 0 -51 -33t-36 -86q-4 -22 -5 -37q20 22 51 22q28 0 43.5 -20t9.5 -48q-6 -27 -30 -46t-51 -19q-40 0 -54 35.5t-2 98.5q16 75 52 119t79 44q55 0 63 -63q28 63 83 63q85 0 59 -124q-15 -67 -53 -130q63 14 95 163q36 173 57 211h37z" />
    <glyph glyph-name="uni0E58" unicode="&#xe58;" horiz-adv-x="449" 
d="M399 119q-27 -124 -126 -124q-73 0 -121 86q-15 -6 -51.5 -40t-43.5 -50q-62 35 -38 151q32 152 213 152q15 0 38.5 -2t35.5 -2q43 0 67 19q31 25 45 88l3 17h35l-4 -20q-29 -139 -148 -139q-18 0 -45 2t-42 2q-67 0 -108 -31t-51 -82q-16 -72 3 -96q53 56 109 75
q8 -27 39 -58q36 -39 68 -39q38 0 63 27q-18 -3 -22 -3q-28 0 -43.5 19.5t-9.5 47.5t29.5 47.5t51.5 19.5t43.5 -19.5t9.5 -47.5zM369 119q3 15 -5.5 26t-23.5 11t-28.5 -11t-16.5 -26t5.5 -26t23.5 -11t28.5 11t16.5 26z" />
    <glyph glyph-name="uni0E59" unicode="&#xe59;" horiz-adv-x="449" 
d="M377 16l-25 -27q-37 35 -74 112q-29 60 -38 109q-3 18 -22.5 35.5t-46.5 18.5q-35 0 -73.5 -36t-49.5 -89q-9 -74 29 -102v6q0 17 6.5 32.5t18 27t26 18.5t30.5 7q24 0 38.5 -15t14.5 -38q0 -17 -7.5 -31t-19 -24.5t-26 -16.5t-28.5 -6q-72 -1 -101 39.5t-16 107.5
q14 66 61 108.5t102 42.5q57 0 83 -50q14 49 49 49q9 0 31 -15.5t33 -15.5q32 0 45 57q11 54 11 94h30q-2 -51 -11 -91q-19 -92 -73 -92q-11 0 -38.5 16t-30.5 16q-15 0 -27 -37q-2 -40 21 -96q32 -68 78 -114zM181 62q3 15 -5.5 26t-23.5 11t-28.5 -11t-16.5 -26
q-4 -15 5 -26t24 -11t28 11t17 26z" />
    <glyph glyph-name="uni0E5A" unicode="&#xe5a;" horiz-adv-x="522" 
d="M430 34q-12 -47 -48 -71l-28 18q34 26 43 66l59 280q7 31 -24 33q-36 -66 -85 -88l-50 -238q-12 -47 -48 -71l-28 18q34 26 43 66l59 280q7 31 -24 33q-56 -98 -137 -98q-47 0 -67 20.5t-13 53.5q5 26 28.5 45t49.5 19t40.5 -19t9.5 -45q-5 -22 -22 -39q59 19 89 95h36
q60 0 47 -62l-4 -15q33 26 54 77h36q60 0 47 -62zM175 337q3 13 -3.5 21.5t-19.5 8.5t-23 -8.5t-13 -21.5t3.5 -21t19.5 -8t23 8t13 21z" />
    <glyph glyph-name="uni0E5B" unicode="&#xe5b;" horiz-adv-x="697" 
d="M219 323q0 -3 -3 -3h-3l1 6h3q3 0 2 -3zM221 323q1 4 -4 4h-5l-3 -14h2l1 6h3q5 0 6 4zM248 323q0 -3 -3 -3h-3l1 6h3q3 0 2 -3zM207 313v2h-7l3 12h-2l-3 -14h9zM183 318h-2q-1 -4 -5 -4t-2 6q1 6 5 6q3 0 3 -4h2q-1 5 -5 5q-6 0 -7 -7q-2 -7 4 -7t7 5zM237 317
q-2 3 -7 6q1 3 4 3q1 -2 1 -3h2q1 4 -3 4q-5 0 -6 -4q3 -3 7 -6q-1 -3 -4 -3t-2 4h-2q-1 -5 4 -5t6 4zM195 313l3 14h-2l-1 -6h-7l1 6h-2l-3 -14h2l2 7h7l-2 -7h2zM261 313l-3 8l6 6h-3l-6 -7l1 7h-2l-3 -14h2l1 5l3 2l1 -7h3zM250 323q1 4 -4 4h-5l-3 -14h2l1 6h3q5 0 6 4z
M659 179h5q-23 -11 -44 -11q-33 0 -52 25q-17 -48 -40 -55q-9 0 -13 33q-5 42 -11 49q-19 -92 -46 -92q-6 0 -10 36q-3 40 -10 51q-27 -98 -59 -98q-6 0 -8 39q-4 50 -9 59q-40 -191 -189 -191q-62 0 -89 43t-12 116q16 75 56 116t96 41q45 0 65 -27.5t10 -75.5
q-9 -43 -32 -72q-29 -36 -69 -36q-22 0 -34.5 16.5t-7.5 38.5q4 23 23 39t42 16q26 0 39 -20v2q5 10 8 24q13 64 -48 64q-41 0 -70.5 -35t-42.5 -96q-11 -55 9.5 -88t63.5 -33q59 0 99.5 43t57.5 122q6 31 7 47q53 -11 52 -106q15 29 21 56q4 19 2 48q40 -12 55 -87
q10 25 13 37q2 9 2 37q41 -12 47 -84q12 13 17 35q3 12 3 27q5 -1 37 -28q29 -25 66 -25zM238 184q2 11 -4.5 19.5t-17.5 8.5t-21.5 -8.5t-12.5 -19.5q-3 -11 4 -19.5t18 -8.5t21 8.5t13 19.5z" />
    <glyph glyph-name="zerowidthnonjoiner" unicode="&#x200c;" 
d="M15 -154h-29v537h29v-537z" />
    <glyph glyph-name="zerowidthjoiner" unicode="&#x200d;" 
d="M15 -154h-29v448l-20 -20l-17 17l37 37l-37 39l18 16l33 -37l34 37l18 -16l-37 -39l37 -37l-18 -17l-19 20v-448z" />
    <glyph glyph-name="lefttorightmark" unicode="&#x200e;" 
d="M15 -154h-29v502h126l-17 18l16 16l52 -52l-52 -52l-16 17l17 18h-97v-467z" />
    <glyph glyph-name="righttoleftmark" unicode="&#x200f;" 
d="M15 -154h-29v467h-97l17 -18l-16 -17l-52 52l52 52q2 -3 7 -8t9 -8l-17 -18h126v-502z" />
    <glyph glyph-name="endash" unicode="&#x2013;" horiz-adv-x="360" 
d="M330 165h-317l7 33h317z" />
    <glyph glyph-name="emdash" unicode="&#x2014;" horiz-adv-x="720" 
d="M687 165h-673l7 33h673z" />
    <glyph glyph-name="quoteleft" unicode="&#x2018;" horiz-adv-x="247" 
d="M185 373q-4 -16 -17.5 -27.5t-28.5 -11.5q-16 0 -25 11.5t-5 27.5q13 60 61 106q28 26 49 36l11 -17q-63 -36 -79 -90q6 1 5 1q14 0 23 -11t6 -25z" />
    <glyph glyph-name="quoteright" unicode="&#x2019;" horiz-adv-x="247" 
d="M223 464q-13 -60 -60 -106q-29 -26 -50 -36l-11 17q63 36 79 90q-7 -1 -6 -1q-14 0 -22.5 11t-5.5 25q4 16 17 27.5t28 11.5q17 0 26 -11t5 -28z" />
    <glyph glyph-name="quotesinglbase" unicode="&#x201a;" horiz-adv-x="247" 
d="M131 31q-13 -60 -60 -106q-29 -26 -50 -36l-11 17q63 36 79 90q-5 -1 -8 -1q-17 0 -23 11t-3 25q3 16 16.5 27.5t28.5 11.5q17 0 26 -11t5 -28z" />
    <glyph glyph-name="quotedblleft" unicode="&#x201c;" horiz-adv-x="370" 
d="M306 373q-4 -16 -17.5 -27.5t-28.5 -11.5q-16 0 -25 11.5t-5 27.5q13 60 61 106q28 26 49 36l11 -17q-63 -36 -79 -90q6 1 5 1q14 0 23 -11t6 -25zM190 373q-4 -16 -17.5 -27.5t-28.5 -11.5q-16 0 -25 11.5t-5 27.5q13 60 61 106q28 26 49 36l11 -17q-63 -36 -79 -90
q6 1 5 1q14 0 23 -11t6 -25z" />
    <glyph glyph-name="quotedblright" unicode="&#x201d;" horiz-adv-x="370" 
d="M228 464q-13 -60 -60 -106q-29 -26 -50 -36l-11 17q63 36 79 90q-7 -1 -6 -1q-14 0 -22.5 11t-5.5 25q4 16 17 27.5t28 11.5q17 0 26 -11t5 -28zM344 464q-13 -60 -60 -106q-29 -26 -50 -36l-11 17q63 36 79 90q-7 -1 -6 -1q-14 0 -22.5 11t-5.5 25q4 16 17 27.5t28 11.5
q17 0 26 -11t5 -28z" />
    <glyph glyph-name="quotedblbase" unicode="&#x201e;" horiz-adv-x="370" 
d="M136 31q-13 -60 -60 -106q-29 -26 -50 -36l-11 17q63 36 79 90q-5 -1 -8 -1q-17 0 -23 11t-3 25q3 16 16.5 27.5t28.5 11.5q17 0 26 -11t5 -28zM252 31q-13 -60 -60 -106q-29 -26 -50 -36l-11 17q63 36 79 90q-5 -1 -8 -1q-17 0 -23 11t-3 25q3 16 16.5 27.5t28.5 11.5
q17 0 26 -11t5 -28z" />
    <glyph glyph-name="dagger" unicode="&#x2020;" horiz-adv-x="374" 
d="M360 322l-7 -33l-129 4l-70 -327h-36l70 327l-131 -4l7 33l129 -4l33 156h36l-33 -156z" />
    <glyph glyph-name="daggerdbl" unicode="&#x2021;" horiz-adv-x="374" 
d="M360 322l-7 -33l-129 4l-33 -152l131 4l-7 -33l-129 4l-32 -150h-36l32 150l-131 -4l7 33l129 -4l33 152l-131 -4l7 33l129 -4l33 156h36l-33 -156z" />
    <glyph glyph-name="bullet" unicode="&#x2022;" horiz-adv-x="216" 
d="M192 200q0 -35 -24.5 -59.5t-59.5 -24.5t-59.5 24.5t-24.5 59.5t24 59.5t60 24.5q35 0 59.5 -25t24.5 -59z" />
    <glyph glyph-name="ellipsis" unicode="&#x2026;" horiz-adv-x="479" 
d="M77 28q-3 -14 -15.5 -24t-26.5 -10t-22 10t-5 24t15.5 24.5t26.5 10.5t22 -10.5t5 -24.5zM237 28q-3 -14 -15.5 -24t-26.5 -10t-22 10t-5 24t15.5 24.5t26.5 10.5t22 -10.5t5 -24.5zM396 28q-3 -14 -15.5 -24t-26.5 -10t-22 10t-5 24t15.5 24.5t26.5 10.5t22 -10.5
t5 -24.5z" />
    <glyph glyph-name="perthousand" unicode="&#x2030;" horiz-adv-x="829" 
d="M472 476h34l-393 -485h-34zM780 139q-30 -142 -137 -142t-77 142t137 142t77 -142zM275 334q-30 -142 -137 -142t-77 142q31 142 138 142t76 -142zM239 334q24 110 -47 110t-95 -110q-23 -110 48 -110t94 110zM744 139q23 110 -48 110t-94 -110t48 -110t94 110zM532 139
q-30 -142 -137 -142t-77 142t137 142t77 -142zM496 139q23 110 -48 110t-94 -110t48 -110t94 110z" />
    <glyph glyph-name="minute" unicode="&#x2032;" horiz-adv-x="125" 
d="M77 371h-27l61 105h55z" />
    <glyph glyph-name="second" unicode="&#x2033;" horiz-adv-x="214" 
d="M77 371h-27l61 105h55zM166 371h-27l61 105h55z" />
    <glyph glyph-name="guilsinglleft" unicode="&#x2039;" horiz-adv-x="183" 
d="M89 48l-84 129l138 132h42l-138 -132l84 -129h-42z" />
    <glyph glyph-name="guilsinglright" unicode="&#x203a;" horiz-adv-x="183" 
d="M28 48h-41l137 129l-82 132h42l82 -132z" />
    <glyph glyph-name="fraction" unicode="&#x2044;" horiz-adv-x="162" 
d="M-43 0h-36l299 476h36z" />
    <glyph glyph-name="Euro" unicode="&#x20ac;" horiz-adv-x="406" 
d="M334 50l5 -32q-58 -25 -135 -25q-75 0 -123 42.5t-56 114.5h-36l7 32h27q2 30 7 57q5 23 13 44h-26l6 32h33q38 76 106 122t146 46q77 0 125 -25l-19 -32q-49 23 -111 23q-60 0 -116 -36t-90 -98h251l-6 -32h-259q-8 -21 -13 -45q-6 -30 -6 -56h256l-7 -32h-247
q10 -57 50.5 -90t96.5 -33q62 0 121 23z" />
    <glyph glyph-name="uni2113" unicode="&#x2113;" horiz-adv-x="209" 
d="M140 22q-22 -11 -41 -18t-29 -7q-43 0 -28 70l27 130l-35 -21l-12 28l56 34l27 126q18 84 70 84q28 0 38 -20.5t3 -55.5q-12 -55 -39.5 -93.5t-68.5 -61.5l-32 -151q-7 -32 13 -32q18 0 59 25zM182 365q5 22 3.5 37t-15.5 15q-20 0 -31 -53l-23 -106q28 21 43.5 47.5
t22.5 59.5z" />
    <glyph glyph-name="trademark" unicode="&#x2122;" horiz-adv-x="563" 
d="M276 464h-87v-222h-30v222h-87v28h204v-28zM546 242h-31l-12 198l-78 -198h-22l-78 198l-12 -198h-31l17 250h33l82 -211l82 211h33z" />
    <glyph glyph-name="Ohm" unicode="&#x2126;" horiz-adv-x="453" 
d="M374 0h-152l24 115q111 48 133 151q14 65 -17 106t-92 41t-109 -41t-62 -106q-22 -103 69 -151l-24 -115h-152l8 33h115l12 59q-37 16 -58.5 63.5t-9.5 107.5q19 88 78.5 136t140.5 48t119.5 -48t19.5 -136q-12 -60 -54.5 -107.5t-85.5 -63.5l-12 -59h116z" />
    <glyph glyph-name="estimated" unicode="&#x212e;" horiz-adv-x="313" 
d="M250 223q8 63 -7 95.5t-53 32.5q-40 0 -68 -32.5t-46 -95.5h174zM254 103q-47 -110 -140 -110q-63 0 -84.5 51.5t0.5 155.5q19 91 66 137.5t101 46.5q60 0 80 -49.5t3 -140.5h-211q-17 -88 -3.5 -128t55.5 -40q30 0 56 20t40 57h37z" />
    <glyph glyph-name="partialdiff" unicode="&#x2202;" horiz-adv-x="317" 
d="M304 282q-22 -105 -71 -182q-69 -105 -165 -105q-36 0 -53 26q-19 29 -9 80q18 87 93 138q65 44 145 44q13 0 19 -1q27 133 -26 133q-44 0 -82 -69l-29 19q55 88 118 88q97 0 60 -171zM255 247q-7 1 -19 1q-74 0 -127 -47q-48 -42 -60 -100q-14 -65 39 -65q55 0 109 83
q41 64 58 128z" />
    <glyph glyph-name="Delta" unicode="&#x2206;" horiz-adv-x="474" 
d="M374 35l-99 347l-247 -347h346zM431 0h-474l337 472z" />
    <glyph glyph-name="product" unicode="&#x220f;" horiz-adv-x="446" 
d="M337 -55h-39l106 498h-260l-106 -498h-38l112 531h338z" />
    <glyph glyph-name="summation" unicode="&#x2211;" horiz-adv-x="411" 
d="M342 -55h-371l9 45l247 228l-153 215l9 43h357l-7 -33h-316l150 -213l-5 -26l-244 -226h331z" />
    <glyph glyph-name="minus" unicode="&#x2212;" horiz-adv-x="411" 
d="M348 165h-301l7 33h301z" />
    <glyph glyph-name="radical" unicode="&#x221a;" horiz-adv-x="350" 
d="M135 -10h-31l-25 240h-51l6 28h78l20 -219l240 433h35z" />
    <glyph glyph-name="infinity" unicode="&#x221e;" horiz-adv-x="618" 
d="M290 221q-52 76 -102 76q-42 0 -68 -23t-33 -54q-8 -37 9 -60.5t58 -23.5q34 0 73 26.5t63 58.5zM566 210q-9 -43 -44 -73t-92 -30q-71 0 -126 91q-80 -91 -157 -91q-52 0 -77 31t-13 84q9 43 44 73t92 30q65 0 125 -90q82 90 158 90q52 0 76.5 -31t13.5 -84zM536 212
q7 37 -10 60.5t-58 23.5q-34 0 -72.5 -26.5t-63.5 -58.5q53 -76 103 -76q42 0 68 23t33 54z" />
    <glyph glyph-name="integral" unicode="&#x222b;" horiz-adv-x="242" 
d="M42 -11q-34 -92 -104 -92q-24 0 -40 5l11 32q11 -5 35 -4q42 3 62 54l151 409q32 89 112 89q21 0 34 -3l-13 -31q-5 1 -16 1q-30 0 -50 -12.5t-32 -45.5z" />
    <glyph glyph-name="approxequal" unicode="&#x2248;" horiz-adv-x="411" 
d="M388 306l-2 -6q-10 -46 -40 -71q-25 -21 -57 -21q-39 0 -76.5 32.5t-72.5 32.5q-47 0 -63 -65h-31l1 8q9 42 38 66t62 24q38 0 76.5 -31.5t74.5 -31.5q43 0 59 63h31zM359 173l-1 -6q-10 -46 -40 -71q-26 -21 -58 -21q-39 0 -76.5 32.5t-72.5 32.5q-47 0 -63 -65h-31l2 8
q9 42 37.5 66t61.5 24q38 0 77 -31.5t75 -31.5q43 0 58 63h31z" />
    <glyph glyph-name="notequal" unicode="&#x2260;" horiz-adv-x="411" 
d="M341 135l-7 -33h-175l-77 -111h-38l77 111h-88l7 33h104l68 97h-151l7 33h167l62 89h41l-63 -89h94l-7 -33h-110l-69 -97h158z" />
    <glyph glyph-name="lessequal" unicode="&#x2264;" horiz-adv-x="411" 
d="M313 16h-296l6 30h296zM297 56l-225 119l10 47l276 119l-8 -38l-238 -105l193 -105z" />
    <glyph glyph-name="greaterequal" unicode="&#x2265;" horiz-adv-x="411" 
d="M313 16h-296l6 30h296zM323 175l-277 -119l8 37l239 105l-194 105l8 38l226 -119z" />
    <glyph glyph-name="lozenge" unicode="&#x25ca;" horiz-adv-x="386" 
d="M352 198l-181 -198h-42l-97 198l181 200h42zM319 198l-89 182l-165 -182l88 -182z" />
    <glyph glyph-name="dottedcircle" unicode="&#x25cc;" horiz-adv-x="400" 
d="M175 368q0 -8 -5.5 -13.5t-13.5 -5.5t-13.5 5.5t-5.5 13.5t5.5 13.5t13.5 5.5t13.5 -5.5t5.5 -13.5zM175 41q0 -8 -5.5 -13.5t-13.5 -5.5t-13.5 5.5t-5.5 13.5t5.5 13.5t13.5 5.5t13.5 -5.5t5.5 -13.5zM11 205q0 -8 -5.5 -13t-13.5 -5t-13 5t-5 13t5 13.5t13 5.5
t13.5 -5.5t5.5 -13.5zM339 205q0 -8 -5.5 -13t-13.5 -5t-13 5t-5 13t5 13.5t13 5.5t13.5 -5.5t5.5 -13.5zM24 266q0 -8 -5.5 -13t-13.5 -5t-13 5t-5 13t5 13.5t13 5.5t13.5 -5.5t5.5 -13.5zM59 321q0 -8 -5.5 -13t-13.5 -5t-13 5t-5 13t5 13.5t13 5.5t13.5 -5.5t5.5 -13.5z
M112 356q0 -8 -5.5 -13t-13.5 -5t-13 5t-5 13t5 13.5t13 5.5t13.5 -5.5t5.5 -13.5zM325 266q0 -8 -5 -13t-13 -5t-13.5 5t-5.5 13t5.5 13.5t13.5 5.5t13 -5.5t5 -13.5zM290 321q0 -8 -5 -13t-13 -5t-13.5 5t-5.5 13t5.5 13.5t13.5 5.5t13 -5.5t5 -13.5zM237 356q0 -8 -5 -13
t-13 -5t-13.5 5t-5.5 13t5.5 13.5t13.5 5.5t13 -5.5t5 -13.5zM24 143q0 -8 -5.5 -13.5t-13.5 -5.5t-13 5.5t-5 13.5t5 13t13 5t13.5 -5t5.5 -13zM59 88q0 -8 -5.5 -13.5t-13.5 -5.5t-13 5.5t-5 13.5t5 13t13 5t13.5 -5t5.5 -13zM112 53q0 -8 -5.5 -13.5t-13.5 -5.5t-13 5.5
t-5 13.5t5 13t13 5t13.5 -5t5.5 -13zM326 143q0 -8 -5 -13.5t-13 -5.5t-13.5 5.5t-5.5 13.5t5.5 13t13.5 5t13 -5t5 -13zM291 88q0 -8 -5 -13.5t-13 -5.5t-13.5 5.5t-5.5 13.5t5.5 13t13.5 5t13 -5t5 -13zM238 53q0 -8 -5 -13.5t-13 -5.5t-13.5 5.5t-5.5 13.5t5.5 13t13.5 5
t13 -5t5 -13z" />
    <glyph glyph-name="uni0E10.alt1" unicode="&#xf700;" horiz-adv-x="336" 
d="M256 79q-18 -88 -98 -88q-79 0 -61 88l11 51q-12 -4 -26 -4q-25 0 -38.5 16.5t-7.5 41.5q5 26 26 43.5t46 17.5q26 0 40 -15.5t8 -43.5l-23 -110q-11 -52 32 -52q44 0 55 52l30 145q6 24 -86 48q-55 15 -119 24q13 46 51.5 76.5t91.5 30.5q21 0 54 -11t52 -11q24 0 34 22
l29 -7q-27 -52 -69 -52q-22 0 -58 12t-56 12q-23 0 -47.5 -13.5t-29.5 -31.5q95 -20 134 -36q64 -25 56 -60zM122 185q2 11 -4 19t-17 8t-20.5 -8t-11.5 -19q-3 -11 3 -18.5t17 -7.5t20.5 7.5t12.5 18.5z" />
    <glyph glyph-name="uni0E34.alt1" unicode="&#xf701;" 
d="M-78 455q-106 41 -207 41q-36 0 -80 -6q12 52 61 84q44 29 97 29q135 0 129 -148zM-109 493q-26 81 -103 81q-70 0 -106 -53q22 3 48 3q96 0 161 -31z" />
    <glyph glyph-name="uni0E35.alt1" unicode="&#xf702;" 
d="M-78 455q-106 41 -207 41q-36 0 -80 -6q12 52 61 84q44 29 97 29q80 0 110 -53l21 97h33l-35 -165q1 -13 0 -27zM-109 493q-26 81 -103 81q-70 0 -106 -53q22 3 48 3q96 0 161 -31z" />
    <glyph glyph-name="uni0E36.alt1" unicode="&#xf703;" 
d="M-78 455q-106 41 -207 41q-36 0 -80 -6q12 52 61 84q44 29 97 29q54 0 87 -26q-1 8 1 16q4 20 21.5 34.5t37.5 14.5t31.5 -14.5t7.5 -34.5q-5 -20 -22.5 -34.5t-37.5 -14.5q-5 0 -12 2q17 -35 15 -91zM-109 493q-26 81 -103 81q-70 0 -106 -53q22 3 48 3q96 0 161 -31z
M-44 593q2 11 -4 18.5t-17 7.5t-20 -7.5t-11 -18.5q-3 -11 3 -18.5t17 -7.5t20 7.5t12 18.5z" />
    <glyph glyph-name="uni0E37.alt1" unicode="&#xf704;" 
d="M-109 493q-26 81 -103 81q-70 0 -106 -53q22 3 48 3q96 0 161 -31zM-79 455q-105 41 -206 41q-36 0 -80 -6q12 52 61 84q44 29 97 29q23 0 41 -4l10 48h33l-13 -60q26 -13 39 -37l20 97h33l-35 -165q1 -13 0 -27z" />
    <glyph glyph-name="uni0E48.alt1" unicode="&#xf705;" 
d="M-105 470h-37l31 144h37z" />
    <glyph glyph-name="uni0E49.alt1" unicode="&#xf706;" 
d="M47 631q-36 -95 -110 -134q-62 -32 -155 -32h-20l5 21q42 16 64 46q-56 7 -45 57q4 22 23.5 36.5t41.5 14.5q25 0 36 -16t6 -40q-12 -56 -65 -90q136 10 178 137h41zM-134 586q2 11 -3.5 18.5t-16.5 7.5t-20.5 -7.5t-11.5 -18.5t4 -18.5t17 -7.5t20 7.5t11 18.5z" />
    <glyph glyph-name="uni0E4A.alt1" unicode="&#xf707;" 
d="M33 631q-38 -156 -183 -156l5 23q46 20 56 67q7 36 -25 45l-37 -32l-22 33q-9 -1 -25 -11.5t-21 -20.5q14 2 18 2q53 -3 43 -54q-16 -51 -64 -51q-27 0 -37.5 19t-4.5 47q8 37 39.5 67.5t64.5 30.5l17 -32l31 32q30 -1 44 -21.5t7 -51.5q-8 -37 -35 -62q23 2 49 30
q34 37 47 96h33zM-186 527q2 11 -3.5 18t-15.5 7t-19 -7t-11 -18q-3 -11 3 -17.5t16 -6.5t18.5 6.5t11.5 17.5z" />
    <glyph glyph-name="uni0E4B.alt1" unicode="&#xf708;" 
d="M-66 526h-57l-12 -56h-34l12 56h-57l6 27h57l11 53h34l-11 -53h57z" />
    <glyph glyph-name="uni0E4C.alt1" unicode="&#xf709;" 
d="M15 658q-10 -34 -42 -49q-19 -9 -51 -16q-31 -5 -39 -13q21 -2 32.5 -17.5t6.5 -37.5q-5 -23 -23.5 -38.5t-41.5 -15.5t-36 15.5t-8 38.5q15 70 90 89l50 14q27 9 31 30h31zM-104 524q2 11 -4 19t-17 8t-21 -8t-12 -19t4 -19t17 -8t21 8t12 19z" />
    <glyph glyph-name="uni0E48.alt2" unicode="&#xf70a;" 
d="M3 480h-36l30 144h36z" />
    <glyph glyph-name="uni0E49.alt2" unicode="&#xf70b;" 
d="M112 643q-35 -95 -110 -134q-61 -32 -154 -32h-20l4 21q43 16 64 46q-55 7 -45 57q5 22 24 36.5t41 14.5q25 0 36 -16t6 -40q-12 -56 -65 -90q135 10 178 137h41zM-68 598q2 11 -4 18.5t-17 7.5t-20 -7.5t-11 -18.5q-3 -11 3 -18.5t17 -7.5t20 7.5t12 18.5z" />
    <glyph glyph-name="uni0E4A.alt2" unicode="&#xf70c;" 
d="M81 622q-38 -156 -182 -156l4 23q46 20 56 67q7 36 -25 45l-37 -32l-22 33q-9 -1 -25 -11.5t-21 -20.5q14 2 18 2q53 -3 43 -54q-11 -51 -64 -51q-27 0 -37.5 19t-4.5 47q8 37 39.5 67.5t64.5 30.5l17 -32l31 32q30 -1 44 -21.5t7 -51.5q-8 -37 -35 -62q23 2 48 30
q34 37 47 96h34zM-138 518q2 11 -3.5 18t-15.5 7t-19 -7t-11 -18q-3 -11 3.5 -17.5t16.5 -6.5t18 6.5t11 17.5z" />
    <glyph glyph-name="uni0E4B.alt2" unicode="&#xf70d;" 
d="M71 532h-57l-12 -56h-35l12 56h-57l6 30h57l11 53h35l-11 -53h57z" />
    <glyph glyph-name="uni0E4C.alt2" unicode="&#xf70e;" 
d="M84 658q-10 -34 -43 -49q-19 -9 -50 -16q-31 -5 -39 -13q21 -2 32.5 -17.5t6.5 -37.5q-5 -23 -23.5 -38.5t-41.5 -15.5t-36 15.5t-8 38.5q15 70 90 89l49 14q27 9 31 30h32zM-35 524q2 11 -4 19t-17 8t-21 -8t-12 -19t4 -19t17 -8t21 8t12 19z" />
    <glyph glyph-name="uni0E0D.alt1" unicode="&#xf70f;" horiz-adv-x="512" 
d="M126 57q3 14 -5 24t-22 10t-25.5 -10t-14.5 -24t4.5 -23.5t21.5 -9.5t26 9.5t15 23.5zM437 82q-19 -90 -117 -90q-97 0 -78 91l39 182q22 103 -75 103q-32 0 -63.5 -19t-49.5 -50q55 -4 71 -44q-25 -5 -47.5 -26t-28.5 -47l-14 -65q15 6 32 6q28 0 43 -19t9 -46
t-25.5 -47t-54.5 -20q-29 0 -44 18.5t-8 49.5l26 122q11 54 69 79q-35 15 -77 11q21 56 68.5 92.5t102.5 36.5q62 0 89 -34t14 -97l-40 -189q-12 -56 50 -56q61 0 73 56l61 287q8 38 29 60l28 -18q-14 -12 -24 -55z" />
    <glyph glyph-name="uni0E31.alt1" unicode="&#xf710;" 
d="M30 618q-16 -68 -68.5 -111.5t-119.5 -43.5q-58 0 -88 24t-22 63q6 26 29 45t49 19t41 -18.5t10 -44.5q-8 -34 -42 -54q14 -3 37 -3q49 1 89 39q35 35 48 85h37zM-171 552q3 14 -4.5 23.5t-20.5 9.5t-25 -9.5t-15 -23.5t5 -23t21 -9t24.5 9t14.5 23z" />
    <glyph glyph-name="uni0E4D.alt1" unicode="&#xf711;" 
d="M-78 538q-7 -32 -33.5 -54t-58.5 -22t-50 22t-11 54t34 54.5t59 22.5t49.5 -22.5t10.5 -54.5zM-111 538q4 18 -6.5 31t-27.5 13q-18 0 -33.5 -13t-19.5 -31t6.5 -30.5t28.5 -12.5q17 0 32.5 12.5t19.5 30.5z" />
    <glyph glyph-name="uni0E47.alt1" unicode="&#xf712;" 
d="M-67 511q-5 -22 -23.5 -36t-38.5 -14q-42 0 -86 43q-29 -9 -61 -44q-34 25 -23 78q16 78 101 78h66q49 0 68 72h34q-9 -43 -37.5 -72t-71.5 -29h-69q-48 0 -58 -46q-4 -22 3 -39q31 28 58 32q14 -15 41 -36q1 8 2 13q4 20 20.5 33.5t36.5 13.5t31 -14t7 -33zM-93 511
q2 9 -3 15.5t-14 6.5t-17 -6.5t-10 -15.5t3 -15.5t14 -6.5t17 6.5t10 15.5z" />
    <glyph glyph-name="uni0E48.alt3" unicode="&#xf713;" 
d="M-36 680h-33l24 111h33z" />
    <glyph glyph-name="uni0E49.alt3" unicode="&#xf714;" 
d="M69 826q-32 -86 -99 -121q-54 -28 -139 -28h-18l4 19q36 14 56 39q-18 0 -29.5 11.5t-11.5 28.5q0 26 20.5 43.5t42.5 17.5q17 0 28.5 -10.5t11.5 -30.5q-3 -56 -63 -92q121 10 160 123h37zM-94 785q2 10 -3 17t-15 7t-18.5 -7t-10.5 -17t3.5 -16.5t15.5 -6.5t18 6.5
t10 16.5z" />
    <glyph glyph-name="uni0E4A.alt3" unicode="&#xf715;" 
d="M-161 725q2 10 -3 17t-15 7t-18.5 -7t-10.5 -17q-3 -10 3 -16.5t16 -6.5t17.5 6.5t10.5 16.5zM49 824q-35 -149 -175 -149l5 22q44 20 53 64q7 34 -23 44l-35 -31l-21 31q-11 -1 -27 -11q-12 -8 -19 -21q5 2 10 3t10 1q21 0 32 -15t7 -36q-5 -21 -22.5 -35.5t-38.5 -14.5
q-26 0 -36.5 17t-3.5 46q7 37 37 65.5t62 28.5l17 -30l29 30q29 -1 42.5 -20.5t7.5 -49.5q-8 -36 -35 -59q24 2 48 29q32 34 44 91h32z" />
    <glyph glyph-name="uni0E4B.alt3" unicode="&#xf716;" 
d="M23 719h-52l-8 -39h-31l8 39h-53l6 28h53l9 43h31l-9 -43h52z" />
    <glyph glyph-name="uni0E4C.alt3" unicode="&#xf717;" 
d="M73 821q-10 -34 -43 -49q-19 -9 -51 -16q-30 -5 -39 -13q22 -2 33 -17.5t7 -37.5q-5 -23 -24 -38.5t-42 -15.5t-35.5 15.5t-7.5 38.5q15 70 90 89l49 14q27 9 31 30h32zM-46 687q2 11 -4.5 19t-17.5 8t-20.5 -8t-11.5 -19q-3 -11 3.5 -19t17.5 -8t20.5 8t12.5 19z" />
    <glyph glyph-name="uni0E38.alt1" unicode="&#xf718;" 
d="M-189 -297q3 11 -3 18.5t-17 7.5t-20 -7.5t-12 -18.5q-2 -11 4 -18.5t17 -7.5t20 7.5t11 18.5zM-178 -375q-8 -38 -29 -60l-28 18q16 15 24 51l3 18q-8 -3 -18 -3q-22 0 -34.5 15.5t-7.5 37.5t23.5 37.5t40.5 15.5t34.5 -15.5t7.5 -37.5z" />
    <glyph glyph-name="uni0E39.alt1" unicode="&#xf719;" 
d="M-294 -298q2 11 -3.5 18.5t-16.5 7.5t-20.5 -7.5t-11.5 -18.5t4 -18.5t17 -7.5t20 7.5t11 18.5zM-166 -315l-11 -58q-14 -62 -86 -62q-68 0 -55 60l5 26q-8 -3 -18 -3q-22 0 -34.5 15.5t-7.5 37.5t23.5 37.5t40.5 15.5t34.5 -15.5t7.5 -37.5l-17 -82q-5 -23 30 -23
q34 0 39 23l16 79q8 38 29 60l28 -18q-14 -12 -24 -55z" />
    <glyph glyph-name="uni0E3A.alt1" unicode="&#xf71a;" 
d="M-148 -272q-3 -11 -12 -19t-20 -8t-17.5 8t-3.5 19q2 11 11.5 18.5t20.5 7.5t17 -7.5t4 -18.5z" />
    <glyph glyph-name="uni0E0F.alt1" unicode="&#xf71c;" horiz-adv-x="425" 
d="M75 -134q-7 9 -28 9q-39 0 -46 -34q-6 -30 25 -30q37 0 49 55zM280 -215h-40l-41 61l-57 -60l-42 60q-8 -31 -30.5 -48.5t-47.5 -17.5q-30 0 -43 18t-7 44q6 29 28.5 46.5t50.5 17.5q19 0 31 -7q9 35 53 58l24 -16q-39 -21 -48 -56l38 -52l60 63l45 -65l91 429
q10 49 -14 78.5t-72 29.5q-34 0 -70 -19.5t-54 -49.5q52 -5 72 -44q-58 -18 -70 -73q-8 -39 -8 -80q0 -18 -5 -42q-6 -29 -29.5 -48.5t-50.5 -19.5t-41.5 19t-8.5 46q5 27 28 46.5t50 19.5q11 0 23 -5q3 46 8 70q10 46 56 72q-25 12 -51 12q-13 0 -19 -1q17 56 68.5 92.5
t109.5 36.5q64 0 96 -36.5t19 -99.5zM92 57q3 14 -5 24t-22 10t-25.5 -10t-14.5 -24t4.5 -23.5t21.5 -9.5t26 9.5t15 23.5z" />
    <glyph glyph-name="uni0E2C.alt1" unicode="&#xf71d;" horiz-adv-x="454" 
d="M144 334q3 14 -4.5 24t-21.5 10t-26.5 -10t-15.5 -24q-2 -14 5.5 -24t21.5 -10t26.5 10t14.5 24zM393 334q3 14 -4.5 24t-21.5 10t-26.5 -10t-15.5 -24q-2 -14 5.5 -24t21.5 -10t26.5 10t14.5 24zM355 0h-44l-59 195l-141 -195h-41l58 275q-15 -7 -32 -7q-27 0 -42 19.5
t-10 46.5q6 27 30 46.5t51 19.5t42 -19.5t9 -46.5l-50 -236q-3 -16 -13 -49q10 17 26 43l104 140h34l44 -140q2 -7 10 -43q5 32 8 49l38 177q-15 -7 -32 -7q-27 0 -42 19.5t-10 46.5q6 27 30 46.5t51 19.5q21 0 30 -12q25 27 80 39l18 -25q-56 -11 -78 -35q5 -18 1 -33z" />
    <glyph glyph-name="franc" unicode="&#x20a3;" horiz-adv-x="360" 
d="M209 94h-134l-19 -94h-39l19 94h-72l7 31h72l75 351h269l-7 -33h-230l-39 -181h215l-7 -33h-215l-22 -104h134z" />
    <glyph glyph-name="dong" unicode="&#x20ab;" horiz-adv-x="401" 
d="M323 83q-8 -37 0 -82l-39 -8q-5 34 -1 67q-60 -69 -141 -69q-73 0 -105.5 50.5t-15.5 132.5q16 75 67.5 124t122.5 49q86 0 114 -72l32 151h-130l7 33h130l10 46h39l-10 -46h48l-7 -33h-48zM295 136l13 57q11 55 -18.5 89t-77.5 34q-58 0 -98.5 -40t-54.5 -103
q-31 -149 95 -149q50 0 90.5 32t50.5 80zM312 -108h-351l6 31h351z" />
    <glyph glyph-name="Abreve" unicode="&#x102;" horiz-adv-x="400" 
d="M357 0h-43l-23 153h-205l-86 -153h-43l282 483h40zM286 186l-36 254l-145 -254h181zM371 589q-11 -27 -34 -44q-31 -24 -70 -24t-61 24q-14 17 -14 44h35q1 -11 7 -19q12 -18 40 -18t47 18q9 8 16 19h34z" />
    <glyph glyph-name="abreve" unicode="&#x103;" horiz-adv-x="401" 
d="M320 69q-9 -40 3 -68l-39 -8q-11 36 -5 69q-55 -72 -141 -72q-58 0 -90 33.5t-32 89.5q0 88 57 158q60 75 146 75q89 1 151 -50zM296 143l31 136q-51 35 -103 35q-73 -1 -124 -65q-46 -60 -46 -131q0 -44 25.5 -70.5t71.5 -26.5q51 0 92.5 36.5t52.5 85.5zM356 453
q-11 -27 -34 -44q-31 -24 -70 -24t-61 24q-14 17 -14 44h35q1 -11 7 -19q12 -18 40 -18t47 18q9 8 16 19h34z" />
    <glyph glyph-name="Cacute" unicode="&#x106;" horiz-adv-x="406" 
d="M334 50l5 -32q-58 -25 -135 -25q-97 0 -146.5 69.5t-27.5 176.5q23 107 102 175.5t176 68.5q77 0 125 -25l-19 -32q-49 23 -111 23q-77 0 -143 -57q-70 -60 -90 -154t24 -154q42 -57 119 -57q62 0 121 23zM257 526h-31l70 91l37 -10z" />
    <glyph glyph-name="cacute" unicode="&#x107;" horiz-adv-x="331" 
d="M264 47l8 -32q-48 -24 -110 -24q-84 0 -122 48.5t-21 129.5q18 81 76 129.5t142 48.5q62 0 100 -24l-21 -32q-32 24 -88 24q-61 0 -108.5 -39t-62.5 -107q-14 -68 17 -107t92 -39q56 0 98 24zM191 390h-31l70 91l37 -10z" />
    <glyph glyph-name="Ccaron" unicode="&#x10c;" horiz-adv-x="406" 
d="M334 50l5 -32q-58 -25 -135 -25q-97 0 -146.5 69.5t-27.5 176.5q23 107 102 175.5t176 68.5q77 0 125 -25l-19 -32q-49 23 -111 23q-77 0 -143 -57q-70 -60 -90 -154t24 -154q42 -57 119 -57q62 0 121 23zM316 520h-28l-52 78h37l35 -52l57 52h37z" />
    <glyph glyph-name="ccaron" unicode="&#x10d;" horiz-adv-x="331" 
d="M264 47l8 -32q-48 -24 -110 -24q-84 0 -122 48.5t-21 129.5q18 81 76 129.5t142 48.5q62 0 100 -24l-21 -32q-32 24 -88 24q-61 0 -108.5 -39t-62.5 -107q-14 -68 17 -107t92 -39q56 0 98 24zM251 384h-28l-52 78h37l35 -52l57 52h37z" />
    <glyph glyph-name="Dcroat" unicode="&#x110;" horiz-adv-x="431" 
d="M411 248q-25 -120 -80 -180q-65 -72 -184 -72q-45 0 -135 9l46 220h-48l7 33h48l45 211q95 12 160 12q90 0 127.5 -61.5t13.5 -171.5zM372 248q21 96 -10 149q-30 50 -102 50q-46 0 -117 -8l-39 -181h151l-7 -33h-151l-40 -189q49 -6 109 -6q160 0 206 218z" />
    <glyph glyph-name="dcroat" unicode="&#x111;" horiz-adv-x="401" 
d="M323 83q-8 -37 0 -82l-39 -8q-5 34 -2 66q-59 -68 -140 -68q-73 0 -105.5 50.5t-15.5 132.5q16 75 67.5 124t122.5 49q86 0 114 -72l32 151h-130l7 33h130l10 46h39l-10 -46h48l-7 -33h-48zM295 136l13 57q11 55 -18.5 89t-77.5 34q-58 0 -98.5 -40t-54.5 -103
q-31 -149 95 -149q50 0 90.5 32t50.5 80z" />
    <glyph glyph-name="Gbreve" unicode="&#x11e;" horiz-adv-x="425" 
d="M390 238l-48 -228q-7 6 -20 6l-61.5 -10.5t-81.5 -10.5q-91 0 -131.5 66.5t-17.5 177.5q23 106 94 172q74 70 176 70q73 0 123 -24l-19 -32q-55 23 -113 23q-75 0 -138 -59t-83 -151q-21 -98 10.5 -154.5t111.5 -56.5q63 0 121 25l32 154h-121l7 32h159zM383 589
q-11 -27 -34 -44q-31 -24 -70 -24t-61 24q-14 17 -14 44h35q1 -11 7 -19q12 -18 40 -18t47 18q9 8 16 19h34z" />
    <glyph glyph-name="gbreve" unicode="&#x11f;" horiz-adv-x="311" 
d="M280 228q-12 -56 -53.5 -89t-92.5 -33q-31 0 -51 11q-9 -15 -12 -29q-5 -26 71 -49q90 -27 75 -98q-9 -43 -46 -70.5t-97 -27.5q-53 0 -90 27l20 32q37 -25 80 -25q37 0 65 17t33 44q11 48 -63 74q-45 15 -60 27q-27 19 -21 49q4 18 20 48q-28 40 -19 85q12 54 53 87
t87 33h133l-7 -32l-48 5q33 -40 23 -86zM245 223q7 33 -9 58q-17 30 -58 30q-40 0 -68 -26.5t-35 -62.5q-9 -40 13 -64q20 -22 52 -22q36 0 66 23t39 64zM326 453q-11 -27 -34 -44q-31 -24 -70 -24t-61 24q-14 17 -14 44h35q1 -11 7 -19q12 -18 40 -18t47 18q9 8 16 19h34z
" />
    <glyph glyph-name="Idotaccent" unicode="&#x130;" horiz-adv-x="147" 
d="M50 0h-39l101 476h39zM179 540q-3 -14 -15 -23.5t-27 -9.5q-14 0 -21.5 9.5t-4.5 23.5t15 24.5t26 10.5q15 0 22.5 -10.5t4.5 -24.5z" />
    <glyph glyph-name="Scedilla" unicode="&#x15e;" horiz-adv-x="357" 
d="M305 124q-12 -54 -58 -90q-53 -43 -132 -43q-78 0 -123 36l22 34q42 -37 112 -37q56 0 93.5 26.5t46.5 70.5q9 40 -10.5 64.5t-72.5 42.5q-124 43 -105 134q12 53 60.5 88t114.5 35q67 0 103 -25q-12 -17 -23 -31q-38 23 -88 23q-56 0 -93 -29q-29 -24 -35 -56
q-15 -66 84 -102q64 -24 88 -52q28 -33 16 -89zM177 -81q-12 -58 -82 -58q-23 0 -44 13l14 22q19 -10 36 -10q38 0 44 28q6 25 -56 30l51 60h32l-35 -38q48 -12 40 -47z" />
    <glyph glyph-name="scedilla" unicode="&#x15f;" horiz-adv-x="288" 
d="M227 90q-10 -43 -48 -71t-96 -28q-50 0 -90 27l21 32q43 -26 79 -26q84 0 97 63q10 49 -63 73q-86 28 -72 92q8 39 43.5 67t88.5 28t79 -23l-22 -32q-25 24 -70 24q-32 0 -54 -17t-27 -42q-8 -40 64 -67q84 -31 70 -100zM136.804 -72.9023
q-10.7998 -52.2012 -73.8018 -52.2012q-20.7012 0 -39.6016 11.7002l12.6006 19.8008q17.1006 -9 32.4014 -9q34.2002 0 39.6006 25.2002q5.40039 22.501 -50.4014 27.001l45.9014 54.001h28.8008l-31.501 -34.2002q43.2012 -10.8008 36.001 -42.3018z" />
    <glyph glyph-name="Ohorn" unicode="&#x1a0;" horiz-adv-x="486" 
d="M471 237q-23 -107 -99.5 -177t-174.5 -70t-144.5 70t-23.5 177t99 177t174 70q87 0 135 -57q52 45 62 94h32q-4 -22 -25 -52q-24 -35 -56 -59q43 -69 21 -173zM432 237q19 88 -19 150.5t-118 62.5t-144 -62.5t-83 -150.5t19 -150.5t118 -62.5t144 62.5t83 150.5z" />
    <glyph glyph-name="ohorn" unicode="&#x1a1;" horiz-adv-x="398" 
d="M362 169q-16 -75 -74 -127t-135 -52t-113 52t-20 127t74 126.5t135 51.5q67 0 106 -43q43 34 59 94h33q-15 -61 -79 -111q29 -50 14 -118zM324 169q14 62 -15 103.5t-87 41.5t-104 -41.5t-60 -103.5q-13 -62 15.5 -104t86.5 -42t104.5 42t59.5 104z" />
    <glyph glyph-name="Uhorn" unicode="&#x1af;" horiz-adv-x="466" 
d="M411 201q-44 -210 -223 -210t-135 210l59 275h39l-59 -274q-20 -94 10 -136t93 -42q64 0 111 42t66 136l59 274h39l-10 -44q54 39 67 89h32q-24 -71 -105 -119z" />
    <glyph glyph-name="uhorn" unicode="&#x1b0;" horiz-adv-x="373" 
d="M312 83q-8 -37 0 -82l-39 -8q-5 34 -2 66q-58 -68 -142 -68q-122 0 -89 158l26 121q8 42 -3 68l39 8q11 -34 5 -67l-26 -123q-28 -131 64 -131q43 0 84 28q45 32 55 81l44 206h39l-9 -41q48 38 65 99h32q-24 -82 -103 -127z" />
    <glyph glyph-name="hookabovecomb" unicode="&#x309;" 
d="M13 471q-7 -31 -39.5 -53t-35.5 -34h-31q7 26 38.5 46t36.5 41q3 14 -5 21.5t-24 7.5q-26 0 -51 -28l-16 15q31 40 78 40q27 0 40.5 -14.5t8.5 -41.5z" />
    <glyph glyph-name="tildecomb" unicode="&#x303;" 
d="M34 454h28q-15 -62 -61 -62q-13 0 -37.5 14t-33.5 14q-17 0 -26 -32h-26q16 64 58 64q13 0 36 -15t38 -15q17 0 24 32z" />
    <glyph glyph-name="acutecomb" unicode="&#x301;" 
d="M-56 390h-31l70 91l37 -10z" />
    <glyph glyph-name="dotbelowcomb" unicode="&#x323;" 
d="M-108 -77q-2 -12 -12 -20.5t-23 -8.5q-12 0 -18.5 8.5t-4.5 20.5q2 10 12.5 19t22.5 9q13 0 19 -9t4 -19z" />
    <glyph glyph-name="gravecomb" unicode="&#x300;" 
d="M12 390h-31l-40 81l41 10z" />
    <glyph glyph-name="oneeighth" unicode="&#x215b;" horiz-adv-x="536" 
d="M90 -9h-33l385 476h33zM161 186h-122l5 24h44l43 201l-45 -33l-14 24l84 63q21 -2 15 -28l-48 -227h43zM447 75q5 21 -5.5 38.5t-37.5 19.5q-29 -2 -46.5 -19t-22.5 -39q-4 -22 8.5 -35.5t37.5 -13.5q24 0 43 13.5t23 35.5zM467 209q3 15 -7 27.5t-32 12.5t-37 -12.5
t-18 -27.5q-3 -14 7 -25.5t31 -17.5q23 5 38 17.5t18 25.5zM481 77q-8 -39 -36.5 -61t-70.5 -22q-41 0 -60 22t-11 61q5 24 21 43t37 31q-16 10 -20.5 24.5t-1.5 31.5q8 33 34 53.5t62 20.5t54 -20.5t10 -53.5q-3 -17 -13.5 -31.5t-29.5 -24.5q36 -23 25 -74z" />
    <glyph glyph-name="threeeighths" unicode="&#x215c;" horiz-adv-x="536" 
d="M90 -9h-33l385 476h33zM232 286q-9 -46 -45 -73.5t-85 -28.5q-45 -1 -67 20l22 32q19 -19 49 -19q37 0 62 19t31 49q9 44 -33 44q-28 0 -47 -14l-8 25q57 35 64 40q27 19 31 37q4 20 -29 20q-45 0 -67 -44l-26 15q40 62 103 62t52 -52q-3 -18 -21.5 -37t-36.5 -26
q64 -10 51 -69zM447 75q5 21 -5.5 38.5t-37.5 19.5q-29 -2 -46.5 -19t-22.5 -39q-4 -22 8.5 -35.5t37.5 -13.5q24 0 43 13.5t23 35.5zM467 209q3 15 -7 27.5t-32 12.5t-37 -12.5t-18 -27.5q-3 -14 7 -25.5t31 -17.5q23 5 38 17.5t18 25.5zM481 77q-8 -39 -36.5 -61
t-70.5 -22q-41 0 -60 22t-11 61q5 24 21 43t37 31q-16 10 -20.5 24.5t-1.5 31.5q8 33 34 53.5t62 20.5t54 -20.5t10 -53.5q-3 -17 -13.5 -31.5t-29.5 -24.5q36 -23 25 -74z" />
    <glyph glyph-name="fiveeighths" unicode="&#x215d;" horiz-adv-x="536" 
d="M90 -9h-33l385 476h33zM229 286q-10 -47 -47 -76t-88 -29q-45 0 -66 28l19 25q14 -10 27.5 -15t30.5 -5q29 0 56 19t34 52q5 25 -11 39t-40 14q-22 0 -41 -20l-21 -1l41 149h137l-11 -31h-100l-19 -65q8 2 14.5 2h14.5q40 0 59 -25.5t11 -60.5zM447 75q5 21 -5.5 38.5
t-37.5 19.5q-29 -2 -46.5 -19t-22.5 -39q-4 -22 8.5 -35.5t37.5 -13.5q24 0 43 13.5t23 35.5zM467 209q3 15 -7 27.5t-32 12.5t-37 -12.5t-18 -27.5q-3 -14 7 -25.5t31 -17.5q23 5 38 17.5t18 25.5zM481 77q-8 -39 -36.5 -61t-70.5 -22q-41 0 -60 22t-11 61q5 24 21 43
t37 31q-16 10 -20.5 24.5t-1.5 31.5q8 33 34 53.5t62 20.5t54 -20.5t10 -53.5q-3 -17 -13.5 -31.5t-29.5 -24.5q36 -23 25 -74z" />
    <glyph glyph-name="seveneighths" unicode="&#x215e;" horiz-adv-x="536" 
d="M90 -9h-33l385 476h33zM278 435q-49 -52 -85.5 -108.5t-54.5 -141.5h-37q16 72 49.5 131t85.5 118h-143l22 33h175zM447 75q5 21 -5.5 38.5t-37.5 19.5q-29 -2 -46.5 -19t-22.5 -39q-4 -22 8.5 -35.5t37.5 -13.5q24 0 43 13.5t23 35.5zM467 209q3 15 -7 27.5t-32 12.5
t-37 -12.5t-18 -27.5q-3 -14 7 -25.5t31 -17.5q23 5 38 17.5t18 25.5zM481 77q-8 -39 -36.5 -61t-70.5 -22q-41 0 -60 22t-11 61q5 24 21 43t37 31q-16 10 -20.5 24.5t-1.5 31.5q8 33 34 53.5t62 20.5t54 -20.5t10 -53.5q-3 -17 -13.5 -31.5t-29.5 -24.5q36 -23 25 -74z" />
    <glyph glyph-name="space" unicode=" " horiz-adv-x="216" 
 />
    <glyph glyph-name="uni0E0E.alt1" unicode="&#xf71b;" horiz-adv-x="425" 
d="M280 -215h-40q-3 24 -35.5 48t-60.5 32l-2 -7q-6 -32 -30 -54.5t-56 -22.5q-30 0 -43 17.5t-8 43.5q7 31 32.5 49t56.5 18q5 0 26 -3q11 37 48 56l24 -16q-34 -19 -41 -48q74 -28 103 -67l91 429q10 49 -14 78.5t-72 29.5q-34 0 -70 -19.5t-54 -49.5q52 -5 72 -44
q-58 -18 -70 -73q-8 -39 -8 -80q0 -18 -5 -42q-6 -29 -29.5 -48.5t-50.5 -19.5t-41.5 19t-8.5 46q5 27 28 46.5t50 19.5q11 0 23 -5q3 46 8 70q10 46 56 72q-25 12 -51 12q-13 0 -19 -1q17 56 68.5 92.5t109.5 36.5q64 0 96 -36.5t19 -99.5zM110 -127q-9 3 -21 3
q-45 0 -52 -32q-6 -31 27 -31q35 0 44 45q2 7 2 15zM92 57q3 14 -5 24t-22 10t-25.5 -10t-14.5 -24t4.5 -23.5t21.5 -9.5t26 9.5t15 23.5z" />
    <glyph glyph-name="onethird" unicode="&#x2153;" horiz-adv-x="536" 
d="M102 -9h-33l385 476h33zM162 186h-122l5 24h44l43 201l-45 -33l-14 24l84 63q21 -2 15 -28l-48 -227h43zM492 101q-10 -46 -45.5 -73.5t-85.5 -28.5q-44 -1 -66 20l21 32q19 -19 49 -19q37 0 62 19t32 49q9 44 -33 44q-28 0 -47 -14l-9 25q58 35 65 40q27 19 31 37
q4 20 -29 20q-45 0 -67 -44l-26 15q40 62 103 62t52 -52q-4 -18 -22 -37t-36 -26q64 -10 51 -69z" />
    <glyph glyph-name="twothirds" unicode="&#x2154;" horiz-adv-x="536" 
d="M102 -9h-33l385 476h33zM492 101q-10 -46 -45.5 -73.5t-85.5 -28.5q-44 -1 -66 20l21 32q19 -19 49 -19q37 0 62 19t32 49q9 44 -33 44q-28 0 -47 -14l-9 25q58 35 65 40q27 19 31 37q4 20 -29 20q-45 0 -67 -44l-26 15q40 62 103 62t52 -52q-4 -18 -22 -37t-36 -26
q64 -10 51 -69zM194 186h-181q11 41 91 105q33 25 64 52t37 54q9 43 -34 43q-48 0 -65 -55l-32 6q12 38 39.5 59t61.5 21q36 0 54 -19.5t11 -54.5q-9 -41 -75 -97q-50 -42 -95 -83h135z" />
    <glyph glyph-name="uni2155" unicode="&#x2155;" horiz-adv-x="536" 
d="M102 -9h-33l385 476h33zM162 186h-122l5 24h44l43 201l-45 -33l-14 24l84 63q21 -2 15 -28l-48 -227h43zM491 98q-10 -47 -47 -76t-88 -29q-45 0 -66 28l19 25q14 -10 27.5 -15t30.5 -5q29 0 56 19t34 52q5 25 -11 39t-40 14q-22 0 -41 -20l-21 -1l41 149h137l-11 -31
h-100l-19 -65q8 2 14.5 2h14.5q40 0 59 -25.5t11 -60.5z" />
    <glyph glyph-name="uni2156" unicode="&#x2156;" horiz-adv-x="536" 
d="M102 -9h-33l385 476h33zM491 98q-10 -47 -47 -76t-88 -29q-45 0 -66 28l19 25q14 -10 27.5 -15t30.5 -5q29 0 56 19t34 52q5 25 -11 39t-40 14q-22 0 -41 -20l-21 -1l41 149h137l-11 -31h-100l-19 -65q8 2 14.5 2h14.5q40 0 59 -25.5t11 -60.5zM194 186h-181
q11 41 91 105q33 25 64 52t37 54q9 43 -34 43q-48 0 -65 -55l-32 6q12 38 39.5 59t61.5 21q36 0 54 -19.5t11 -54.5q-9 -41 -75 -97q-50 -42 -95 -83h135z" />
    <glyph glyph-name="uni2157" unicode="&#x2157;" horiz-adv-x="536" 
d="M102 -9h-33l385 476h33zM491 98q-10 -47 -47 -76t-88 -29q-45 0 -66 28l19 25q14 -10 27.5 -15t30.5 -5q29 0 56 19t34 52q5 25 -11 39t-40 14q-22 0 -41 -20l-21 -1l41 149h137l-11 -31h-100l-19 -65q8 2 14.5 2h14.5q40 0 59 -25.5t11 -60.5zM233 286q-9 -46 -45 -73.5
t-85 -28.5q-45 -1 -67 20l22 32q19 -19 49 -19q37 0 62 19t31 49q9 44 -33 44q-28 0 -47 -14l-8 25q57 35 64 40q27 19 31 37q4 20 -29 20q-45 0 -67 -44l-26 15q40 62 103 62t52 -52q-3 -18 -21.5 -37t-36.5 -26q64 -10 51 -69z" />
    <glyph glyph-name="uni2158" unicode="&#x2158;" horiz-adv-x="536" 
d="M102 -9h-33l385 476h33zM491 98q-10 -47 -47 -76t-88 -29q-45 0 -66 28l19 25q14 -10 27.5 -15t30.5 -5q29 0 56 19t34 52q5 25 -11 39t-40 14q-22 0 -41 -20l-21 -1l41 149h137l-11 -31h-100l-19 -65q8 2 14.5 2h14.5q40 0 59 -25.5t11 -60.5zM163 291l32 148
q-33 -24 -66 -72q-32 -44 -41 -76h75zM233 258h-42l-13 -62h-35l13 62h-112q16 67 67 137q63 85 128 87l-41 -191h44z" />
    <glyph glyph-name="uni2159" unicode="&#x2159;" horiz-adv-x="536" 
d="M91 -9h-33l385 476h33zM162 186h-122l5 24h44l43 201l-45 -33l-14 24l84 63q21 -2 15 -28l-48 -227h43zM480 86q-9 -39 -37 -65t-66 -26q-48 0 -66 32q-17 29 -7 72q14 69 70.5 123.5t128.5 65.5l-5 -27q-45 -12 -85 -43q-35 -26 -54 -58q24 18 60 18q32 0 51 -23.5
t10 -68.5zM446 86q6 27 -5 45t-36 18t-44 -18t-25 -45q-6 -26 6 -43t37 -17q26 0 43.5 17t23.5 43z" />
    <glyph glyph-name="uni215A" unicode="&#x215a;" horiz-adv-x="536" 
d="M91 -9h-33l385 476h33zM480 86q-9 -39 -37 -65t-66 -26q-48 0 -66 32q-17 29 -7 72q14 69 70.5 123.5t128.5 65.5l-5 -27q-45 -12 -85 -43q-35 -26 -54 -58q24 18 60 18q32 0 51 -23.5t10 -68.5zM446 86q6 27 -5 45t-36 18t-44 -18t-25 -45q-6 -26 6 -43t37 -17
q26 0 43.5 17t23.5 43zM230 286q-10 -47 -47 -76t-88 -29q-45 0 -66 28l19 25q14 -10 27.5 -15t30.5 -5q29 0 56 19t34 52q5 25 -11 39t-40 14q-22 0 -41 -20l-21 -1l41 149h137l-11 -31h-100l-19 -65q8 2 14.5 2h14.5q40 0 59 -25.5t11 -60.5z" />
    </font>
</defs>
</svg>
